找回密码
 立即注册

QQ登录

只需一步,快速开始

快捷登录

搜索
查看: 1629|回复: 11

[WAV][宝丽金25周年为全世界歌唱会2CD(香港宝丽金01首版)liujian121原创]

[复制链接]

63

主题

3

精华

625

威望

版主

超级网管

最佳基友奖2货中的战斗机社区建设奖

发表于 2018-6-13 17:25 | 显示全部楼层 |阅读模式
本帖最后由 liujian121 于 2018-6-13 18:14 编辑







曲目:
CD1
1.为全世界歌唱 -合唱
2.沒名字的歌无名字的你 -黎明
3.危情追踪 -黎明
4.红颜知己 -周慧敏
5.最爱 -周慧敏
6.金曲25年Medley:[天籁.星河传说(音乐)/L.O.V.E(男歌手合唱)/半斤八两(CD VOLCE)/点解手牵手(黎瑞恩)/铁塔凌云(郑嘉颖)/罂粟花(王馨平)/陌上归人(洪健华)/旧梦不须记(汤宝如)/残梦(陈晓东)/万水千山纵横(音乐)/传说(陈琪)/常在我心间(群星)/不应再犹豫(郑嘉颖)/一段情(CD VOICE)/人在旅途洒泪时(陈晓东 陈琪)/忘不了你(音乐)/我为你狂(王馨平)/爱在深秋(洪健华)/Smile again玛莉亚(郑嘉颖 洪健华)/只有情永在(群星)/红日(CD VOICE)/对不起.我爱你(汤宝如)/失恋(音乐)/一生不变(陈晓东 洪健华)/再坐一会(汤宝如)/难得有情人(陈琪)/婚纱背后(黎瑞恩 陈琪)/千千阙歌(群星)]
7.怎么天生不是女人 -草蜢
8.我们都是这样失恋的 -草蜢
9.梦伴 -关淑怡
10.人生可有知己 -关淑怡
11.別问我是谁 -王馨平
12.缘分的天空 -汤宝如
13.一人有一个梦想 -黎瑞恩
14.千个太阳 -黎瑞恩/王馨平/汤宝如

CD2
1.飘 -陈慧娴
2.傻女 -陈慧娴
3.邓丽君金曲 -关淑怡/王馨平/周慧敏/汤宝如/陈慧娴
忘记他-关淑怡/月亮代表我的心-王馨平/我只在乎你-周慧敏/小城故事-汤宝如/何日君再来-关淑怡/恰似你的温柔-王馨平/甜蜜蜜-周慧敏/千言万语-陈慧娴/再见!我的爱人-陈慧娴/周慧敏/王馨平/关淑怡/汤宝如
4.离开以后 -张学友
5.我等到花儿也谢了 -张学友
6.我至叻 -陈百祥
7.还我真情 -谭咏麟
8.情凭谁来定错对 -谭咏麟
9.至尊三人组 -张学友/谭咏麟/黎明
幻影-张学友/今夜你会不会来-谭咏麟/谁可改变-黎明/那有一天不想你-张学友/忘情冷雨夜-黎明/每天爱你多一些-谭咏麟
10.为全世界歌唱 -Instrumental

本专辑为CD抓轨,仅供个人试听,切勿外传,请自觉于下载后24小时内删除,任何人不得用于商业用途!如果喜欢本专辑,请购买正版,谢谢合作!

包内WAV+CUE+LOG+600DPI高清扫图。

游客,如果您要查看本帖隐藏内容请回复



本帖子中包含更多资源

您需要 登录 才可以下载或查看,没有帐号?立即注册

x

63

主题

3

精华

625

威望

版主

超级网管

最佳基友奖2货中的战斗机社区建设奖

 楼主| 发表于 2018-6-13 17:25 | 显示全部楼层
Exact Audio Copy V1.1 from 23. June 2015

EAC 抓取日志文件从25. 六月 2017, 13:15

宝丽金群星 / 宝丽金25周年为全世界歌唱会CD1

使用驱动器  :TSSTcorpDVD+-RW TS-L633J   Adapter: 1  ID: 0

读取模式      : 可靠Secure
使用精确流     : 是
清空音频缓存    : 是
使用 C2 指示器 : 否

读取偏移校正:               : 6
读取 Lead-In 和 Lead-Out : 否
用静音填充抓取中丢失偏移的采样       : 是
去除首尾静音块               : 否
在CRC 计算中使用了空样本       : 是
已用接口                  : Win NT 及 2000 本地 Win32 接口

所用输出模式: : 内部 WAV 函数
样本格式    : 44.100 Hz; 16 Bit; 立体声


已抓取 CD 的 TOC

     音轨 |    起始    |    长度    |  起始扇区  |  结束扇区  
    --------------------------------------------
      1 |  0:00.32 |  5:33.33 |     32 |  25039
      2 |  5:33.65 |  4:24.62 |  25040 |  44901
      3 |  9:58.52 |  4:19.18 |  44902 |  64344
      4 | 14:17.70 |  4:13.02 |  64345 |  83321
      5 | 18:30.72 |  4:50.30 |  83322 | 105101
      6 | 23:21.27 |  7:39.68 | 105102 | 139594
      7 | 31:01.20 |  4:20.67 | 139595 | 159161
      8 | 35:22.12 |  4:57.40 | 159162 | 181476
      9 | 40:19.52 |  3:16.60 | 181477 | 196236
     10 | 43:36.37 |  4:11.63 | 196237 | 215124
     11 | 47:48.25 |  2:44.62 | 215125 | 227486
     12 | 50:33.12 |  2:04.18 | 227487 | 236804
     13 | 52:37.30 |  2:08.60 | 236805 | 246464
     14 | 54:46.15 |  1:27.42 | 246465 | 253031


范围状态及错误

已选择范围

     文件名 C:\Users\Administrator\Desktop\宝丽金25周年为全世界歌唱会(香港宝丽金01首版)liujian121原创\宝丽金群星 - 宝丽金25周年为全世界歌唱会CD1.wav

     峰值电平 100.0 %
     抓取速度 4.2 X
     范围质量 99.9 %
     复制 CRC 4188A82B
     复制成功

没有错误发生


AccurateRip 摘要

音轨  1  精确地校准抓取  1)  [CE675B0C]  (AR v1)
音轨  2  精确地校准抓取  1)  [C8564ACB]  (AR v1)
音轨  3  精确地校准抓取  1)  [756C2296]  (AR v1)
音轨  4  精确地校准抓取  1)  [CC18EA75]  (AR v1)
音轨  5  精确地校准抓取  1)  [CED2B4D6]  (AR v1)
音轨  6  精确地校准抓取  1)  [32A6EB52]  (AR v1)
音轨  7  精确地校准抓取  1)  [F1ED5393]  (AR v1)
音轨  8  精确地校准抓取  1)  [E0AC7A45]  (AR v1)
音轨  9  精确地校准抓取  1)  [2652ABEA]  (AR v1)
音轨 10  精确地校准抓取  1)  [9A430019]  (AR v1)
音轨 11  精确地校准抓取  1)  [622BCCBA]  (AR v1)
音轨 12  精确地校准抓取  1)  [EE8A2536]  (AR v1)
音轨 13  精确地校准抓取  1)  [CE3923DD]  (AR v1)
音轨 14  不能准确地校验 (确认 1)  [B01C6E6B], 返回 AccurateRip [91DA0767]  (AR v2)

13 音轨精确校准抓取
1 音轨不能准确校验

一些音轨不能准确地校验

状态报告结尾

---- CUETools DB Plugin V2.1.6

[CTDB TOCID: bcLRVkVT7v850AMcRI7ARGG11bI-] found
Submit result: bcLRVkVT7v850AMcRI7ARGG11bI- has been confirmed
Track | CTDB Status
  1   | (5/5) Accurately ripped
  2   | (5/5) Accurately ripped
  3   | (5/5) Accurately ripped
  4   | (5/5) Accurately ripped
  5   | (5/5) Accurately ripped
  6   | (5/5) Accurately ripped
  7   | (5/5) Accurately ripped
  8   | (5/5) Accurately ripped
  9   | (5/5) Accurately ripped
10   | (5/5) Accurately ripped
11   | (5/5) Accurately ripped
12   | (5/5) Accurately ripped
13   | (5/5) Accurately ripped
14   | (5/5) Accurately ripped



Exact Audio Copy V1.1 from 23. June 2015

EAC 抓取日志文件从25. 六月 2017, 13:52

宝丽金群星 / 宝丽金25周年为全世界歌唱会CD2

使用驱动器  :TSSTcorpDVD+-RW TS-L633J   Adapter: 1  ID: 0

读取模式      : 可靠Secure
使用精确流     : 是
清空音频缓存    : 是
使用 C2 指示器 : 否

读取偏移校正:               : 6
读取 Lead-In 和 Lead-Out : 否
用静音填充抓取中丢失偏移的采样       : 是
去除首尾静音块               : 否
在CRC 计算中使用了空样本       : 是
已用接口                  : Win NT 及 2000 本地 Win32 接口

所用输出模式: : 内部 WAV 函数
样本格式    : 44.100 Hz; 16 Bit; 立体声


已抓取 CD 的 TOC

     音轨 |    起始    |    长度    |  起始扇区  |  结束扇区  
    --------------------------------------------
      1 |  0:00.32 |  4:32.13 |     32 |  20444
      2 |  4:32.45 |  3:33.12 |  20445 |  36431
      3 |  8:05.57 | 14:28.03 |  36432 | 101534
      4 | 22:33.60 |  4:12.60 | 101535 | 120494
      5 | 26:46.45 |  5:07.40 | 120495 | 143559
      6 | 31:54.10 |  2:58.57 | 143560 | 156966
      7 | 34:52.67 |  3:51.68 | 156967 | 174359
      8 | 38:44.60 |  5:31.32 | 174360 | 199216
      9 | 44:16.17 | 11:56.18 | 199217 | 252934
     10 | 56:12.35 |  1:50.35 | 252935 | 261219


范围状态及错误

已选择范围

     文件名 C:\Users\Administrator\Desktop\宝丽金25周年为全世界歌唱会(香港宝丽金01首版)liujian121原创\宝丽金群星 - 宝丽金25周年为全世界歌唱会CD2.wav

     峰值电平 100.0 %
     抓取速度 4.3 X
     范围质量 100.0 %
     复制 CRC 03760865
     复制成功

没有错误发生


AccurateRip 摘要

音轨  1  精确地校准抓取  1)  [5A91A91A]  (AR v1)
音轨  2  精确地校准抓取  1)  [0D1D9EEB]  (AR v1)
音轨  3  精确地校准抓取  1)  [554F442F]  (AR v1)
音轨  4  精确地校准抓取  1)  [49140DCD]  (AR v1)
音轨  5  精确地校准抓取  1)  [38C8D294]  (AR v1)
音轨  6  精确地校准抓取  1)  [EF9C7F79]  (AR v1)
音轨  7  精确地校准抓取  1)  [77AC4E76]  (AR v1)
音轨  8  精确地校准抓取  1)  [9CAA2071]  (AR v1)
音轨  9  精确地校准抓取  1)  [9A91702F]  (AR v1)
音轨 10  精确地校准抓取  1)  [20D7C190]  (AR v1)

所有音轨精确校准抓取

状态报告结尾

---- CUETools DB Plugin V2.1.6

[CTDB TOCID: JAerjobEvM8K2HbjnC.KKnq_vrw-] found
Submit result: JAerjobEvM8K2HbjnC.KKnq_vrw- has been confirmed
Track | CTDB Status
  1   | (4/4) Accurately ripped
  2   | (4/4) Accurately ripped
  3   | (4/4) Accurately ripped
  4   | (4/4) Accurately ripped
  5   | (4/4) Accurately ripped
  6   | (4/4) Accurately ripped
  7   | (4/4) Accurately ripped
  8   | (4/4) Accurately ripped
  9   | (4/4) Accurately ripped
10   | (4/4) Accurately ripped
我只说三句话,包括刚才那句,我的话完了。

63

主题

3

精华

625

威望

版主

超级网管

最佳基友奖2货中的战斗机社区建设奖

 楼主| 发表于 2018-6-13 17:26 | 显示全部楼层
REM GENRE Pop
REM DATE 1996
REM DISCID AE0D2D0E
REM COMMENT "ExactAudioCopy v1.1"
PERFORMER "宝丽金群星"
TITLE "宝丽金25周年为全世界歌唱会CD1"
FILE "宝丽金群星 - 宝丽金25周年为全世界歌唱会CD1.wav" WAVE
  TRACK 01 AUDIO
    TITLE "为全世界歌唱"
    PERFORMER "宝丽金群星"
    INDEX 00 00:00:00
    INDEX 01 00:00:32
  TRACK 02 AUDIO
    TITLE "没名字的歌 无名字的你"
    PERFORMER "黎明"
    INDEX 01 05:33:65
  TRACK 03 AUDIO
    TITLE "危情追踪"
    PERFORMER "黎明"
    INDEX 01 09:58:52
  TRACK 04 AUDIO
    TITLE "红颜知已"
    PERFORMER "周慧敏"
    INDEX 01 14:17:70
  TRACK 05 AUDIO
    TITLE "最爱"
    PERFORMER "周慧敏"
    INDEX 01 18:30:72
  TRACK 06 AUDIO
    TITLE "金曲25年 medley"
    PERFORMER "宝丽金群星"
    INDEX 01 23:21:27
  TRACK 07 AUDIO
    TITLE "怎么天生不是女人"
    PERFORMER "草蜢"
    INDEX 01 31:01:20
  TRACK 08 AUDIO
    TITLE "我们都是这样失恋的"
    PERFORMER "草蜢"
    INDEX 01 35:22:12
  TRACK 09 AUDIO
    TITLE "梦伴"
    PERFORMER "关淑怡"
    INDEX 01 40:19:52
  TRACK 10 AUDIO
    TITLE "人生可有知已"
    PERFORMER "关淑怡"
    INDEX 01 43:36:37
  TRACK 11 AUDIO
    TITLE "别问我是谁"
    PERFORMER "王馨平"
    INDEX 01 47:48:25
  TRACK 12 AUDIO
    TITLE "缘份的天空"
    PERFORMER "汤宝如"
    INDEX 01 50:33:12
  TRACK 13 AUDIO
    TITLE "一人有一个梦想"
    PERFORMER "黎瑞恩"
    INDEX 01 52:37:30
  TRACK 14 AUDIO
    TITLE "千个太阳"
    PERFORMER "黎瑞恩/王馨平/汤宝如"
    INDEX 01 54:46:15



REM GENRE Pop
REM DATE 1996
REM DISCID 920D9A0A
REM COMMENT "ExactAudioCopy v1.1"
PERFORMER "宝丽金群星"
TITLE "宝丽金25周年为全世界歌唱会CD2"
FILE "宝丽金群星 - 宝丽金25周年为全世界歌唱会CD2.wav" WAVE
  TRACK 01 AUDIO
    TITLE "飘"
    PERFORMER "陈慧娴"
    INDEX 00 00:00:00
    INDEX 01 00:00:32
  TRACK 02 AUDIO
    TITLE "傻女"
    PERFORMER "陈慧娴"
    INDEX 01 04:32:45
  TRACK 03 AUDIO
    TITLE "邓丽君金曲"
    PERFORMER "关淑怡/王馨平/周慧敏/汤宝如/陈慧娴"
    INDEX 01 08:05:57
  TRACK 04 AUDIO
    TITLE "离开以后"
    PERFORMER "张学友"
    INDEX 01 22:33:60
  TRACK 05 AUDIO
    TITLE "我等到花儿也谢了"
    PERFORMER "张学友"
    INDEX 01 26:46:45
  TRACK 06 AUDIO
    TITLE "我至叻"
    PERFORMER "陈百祥"
    INDEX 01 31:54:10
  TRACK 07 AUDIO
    TITLE "还我真情"
    PERFORMER "谭咏麟"
    INDEX 01 34:52:67
  TRACK 08 AUDIO
    TITLE "情凭谁来定错对"
    PERFORMER "谭咏麟"
    INDEX 01 38:44:60
  TRACK 09 AUDIO
    TITLE "至尊三人组"
    PERFORMER "张学友/谭咏麟/黎明"
    INDEX 01 44:16:17
  TRACK 10 AUDIO
    TITLE "为全世界歌唱"
    PERFORMER "Instrumental"
    INDEX 01 56:12:35
我只说三句话,包括刚才那句,我的话完了。

0

主题

0

精华

0

威望

新手上路

Rank: 1

发表于 2018-7-8 23:14 | 显示全部楼层
感谢分享好东西 谢谢了

0

主题

0

精华

0

威望

新手上路

Rank: 1

发表于 2018-7-22 09:07 | 显示全部楼层
非常经典的演唱会,看过视频!

101

主题

3

精华

282

威望

版主

社区建设奖

发表于 2018-7-26 07:53 | 显示全部楼层
经典歌曲,怀念金曲,谢谢无私奉献

34

主题

0

精华

483

威望

版主

2货中的战斗机最佳基友奖

QQ
发表于 2018-7-26 11:42 | 显示全部楼层
回复

使用道具 举报

34

主题

0

精华

483

威望

版主

2货中的战斗机最佳基友奖

QQ
发表于 2018-7-26 11:44 | 显示全部楼层
哥有DVD,可惜是盗版的

0

主题

0

精华

0

威望

新手上路

Rank: 1

发表于 2018-9-1 15:08 | 显示全部楼层
多谢分享~~~
回复

使用道具 举报

0

主题

0

精华

0

威望

新手上路

Rank: 1

发表于 2018-9-24 22:44 | 显示全部楼层
非常到位的好碟,谢谢版主的放送!

0

主题

0

精华

0

威望

新手上路

Rank: 1

发表于 2018-11-18 07:22 | 显示全部楼层
回复

使用道具 举报

8

主题

0

精华

18

威望

高级会员

Rank: 5Rank: 5

发表于 2019-9-19 12:00 | 显示全部楼层
回复

使用道具 举报

您需要登录后才可以回帖 登录 | 立即注册

本版积分规则

QQ|Archiver|手机版|小黑屋|简单论坛

GMT+8, 2020-5-29 23:29 , Processed in 0.157521 second(s), 26 queries .

Powered by Discuz! X3.4

© 2001-2013 Comsenz Inc.