找回密码
 立即注册

QQ登录

只需一步,快速开始

快捷登录

搜索
查看: 1868|回复: 23

[非常好听的女声][Frida Amundsen-September Blue(欧版)liujian121原创]

 关闭 [复制链接]

63

主题

3

精华

625

威望

版主

超级网管

最佳基友奖2货中的战斗机社区建设奖

发表于 2016-11-29 12:43 | 显示全部楼层 |阅读模式
本帖最后由 liujian121 于 2018-6-13 17:27 编辑





欧版,IFPI LK97,非常喜欢的一张女声专辑。

曲目:
1、Closer
2、Flawed
3、You Are Not Alone
4、Sing
5、Rush
6、Echo of Me
7、Someone Make Me Cry
8、September Song
9、Domino
10、Be Mine
11、Yesterday's Gone

已删档




本帖子中包含更多资源

您需要 登录 才可以下载或查看,没有帐号?立即注册

x
我只说三句话,包括刚才那句,我的话完了。

63

主题

3

精华

625

威望

版主

超级网管

最佳基友奖2货中的战斗机社区建设奖

 楼主| 发表于 2016-11-29 12:43 | 显示全部楼层
Exact Audio Copy V1.1 from 23. June 2015

EAC 抓取日志文件从26. 十月 2016, 17:19

Frida Amundsen / September Blue

使用驱动器  :TSSTcorpDVD+-RW TS-L633J   Adapter: 1  ID: 0

读取模式      : 可靠Secure
使用精确流     : 是
清空音频缓存    : 是
使用 C2 指示器 : 否

读取偏移校正:               : 6
读取 Lead-In 和 Lead-Out : 否
用静音填充抓取中丢失偏移的采样       : 是
去除首尾静音块               : 否
在CRC 计算中使用了空样本       : 是
已用接口                  : Win NT 及 2000 本地 Win32 接口

所用输出模式: : 内部 WAV 函数
样本格式    : 44.100 Hz; 16 Bit; 立体声


已抓取 CD 的 TOC

     音轨 |    起始    |    长度    |  起始扇区  |  结束扇区  
    --------------------------------------------
      1 |  0:00.00 |  2:40.33 |      0 |  12032
      2 |  2:40.33 |  4:01.01 |  12033 |  30108
      3 |  6:41.34 |  4:01.52 |  30109 |  48235
      4 | 10:43.11 |  3:08.00 |  48236 |  62335
      5 | 13:51.11 |  3:18.00 |  62336 |  77185
      6 | 17:09.11 |  3:25.40 |  77186 |  92600
      7 | 20:34.51 |  3:58.64 |  92601 | 110514
      8 | 24:33.40 |  3:56.03 | 110515 | 128217
      9 | 28:29.43 |  4:24.61 | 128218 | 148078
     10 | 32:54.29 |  4:18.59 | 148079 | 167487
     11 | 37:13.13 |  3:53.26 | 167488 | 184988


范围状态及错误

已选择范围

     文件名 C:\Users\Administrator\Desktop\Frida Amundsen-September Blue(欧版)liujian121原创\Frida Amundsen - September Blue.wav

     峰值电平 98.8 %
     抓取速度 3.9 X
     范围质量 100.0 %
     复制 CRC 77D1EDCF
     复制成功

没有错误发生


AccurateRip 摘要

音轨  1  精确地校准抓取  25)  [4529D750]  (AR v2)
音轨  2  精确地校准抓取  25)  [32EA6F19]  (AR v2)
音轨  3  精确地校准抓取  25)  [00D7C899]  (AR v2)
音轨  4  精确地校准抓取  25)  [7E101E9F]  (AR v2)
音轨  5  精确地校准抓取  25)  [69800650]  (AR v2)
音轨  6  精确地校准抓取  25)  [04809471]  (AR v2)
音轨  7  精确地校准抓取  25)  [61E786CA]  (AR v2)
音轨  8  精确地校准抓取  25)  [C2CD2F7E]  (AR v2)
音轨  9  精确地校准抓取  25)  [0C0A1B18]  (AR v2)
音轨 10  精确地校准抓取  25)  [C4E39878]  (AR v2)
音轨 11  精确地校准抓取  25)  [17BB596E]  (AR v2)

所有音轨精确校准抓取

状态报告结尾

---- CUETools DB Plugin V2.1.6

[CTDB TOCID: 5V9AmiOOJ9PXTl9m2aG_8b_6.88-] found
Submit result: 5V9AmiOOJ9PXTl9m2aG_8b_6.88- has been confirmed
Track | CTDB Status
  1   | (26/26) Accurately ripped
  2   | (26/26) Accurately ripped
  3   | (26/26) Accurately ripped
  4   | (26/26) Accurately ripped
  5   | (26/26) Accurately ripped
  6   | (26/26) Accurately ripped
  7   | (26/26) Accurately ripped
  8   | (26/26) Accurately ripped
  9   | (26/26) Accurately ripped
10   | (26/26) Accurately ripped
11   | (26/26) Accurately ripped
我只说三句话,包括刚才那句,我的话完了。

63

主题

3

精华

625

威望

版主

超级网管

最佳基友奖2货中的战斗机社区建设奖

 楼主| 发表于 2016-11-29 12:43 | 显示全部楼层
REM DISCID 7E09A20B
REM COMMENT "ExactAudioCopy v1.1"
PERFORMER "Frida Amundsen"
TITLE "September Blue"
FILE "Frida Amundsen - September Blue.wav" WAVE
  TRACK 01 AUDIO
    TITLE "Closer"
    PERFORMER "Frida Amundsen"
    INDEX 01 00:00:00
  TRACK 02 AUDIO
    TITLE "Flawed"
    PERFORMER "Frida Amundsen"
    INDEX 01 02:40:33
  TRACK 03 AUDIO
    TITLE "You Are Not Alone"
    PERFORMER "Frida Amundsen"
    INDEX 01 06:41:34
  TRACK 04 AUDIO
    TITLE "Sing"
    PERFORMER "Frida Amundsen"
    INDEX 01 10:43:11
  TRACK 05 AUDIO
    TITLE "Rush"
    PERFORMER "Frida Amundsen"
    INDEX 01 13:51:11
  TRACK 06 AUDIO
    TITLE "Echo of Me"
    PERFORMER "Frida Amundsen"
    INDEX 01 17:09:11
  TRACK 07 AUDIO
    TITLE "Someone Make Me Cry"
    PERFORMER "Frida Amundsen"
    INDEX 01 20:34:51
  TRACK 08 AUDIO
    TITLE "September Song"
    PERFORMER "Frida Amundsen"
    INDEX 01 24:33:40
  TRACK 09 AUDIO
    TITLE "Domino"
    PERFORMER "Frida Amundsen"
    INDEX 01 28:29:43
  TRACK 10 AUDIO
    TITLE "Be Mine"
    PERFORMER "Frida Amundsen"
    INDEX 01 32:54:29
  TRACK 11 AUDIO
    TITLE "Yesterday's Gone"
    PERFORMER "Frida Amundsen"
    INDEX 01 37:13:13

评分

参与人数 1威望 +3 收起 理由
酒池肉林 + 3

查看全部评分

我只说三句话,包括刚才那句,我的话完了。

545

主题

0

精华

250

威望

勤杂工

社区建设奖

发表于 2016-11-29 15:10 | 显示全部楼层
辛苦了,看在你没办法给自己加的份儿上,给你加点吧

545

主题

0

精华

250

威望

勤杂工

社区建设奖

发表于 2016-11-29 15:12 简单论坛手机触屏版 | 显示全部楼层
想要原ID也行啊,你注册后发个帖,转一下分分和职务就行

63

主题

3

精华

625

威望

版主

超级网管

最佳基友奖2货中的战斗机社区建设奖

 楼主| 发表于 2016-11-29 15:13 简单论坛手机触屏版 | 显示全部楼层
酒池肉林 发表于 2016-11-29 15:10
辛苦了,看在你没办法给自己加的份儿上,给你加点吧

好人啊,又可以出去嘚瑟了

63

主题

3

精华

625

威望

版主

超级网管

最佳基友奖2货中的战斗机社区建设奖

 楼主| 发表于 2016-11-29 15:14 简单论坛手机触屏版 | 显示全部楼层
酒池肉林 发表于 2016-11-29 15:10
辛苦了,看在你没办法给自己加的份儿上,给你加点吧

好人啊,又可以出去嘚瑟了

63

主题

3

精华

625

威望

版主

超级网管

最佳基友奖2货中的战斗机社区建设奖

 楼主| 发表于 2016-11-29 15:14 简单论坛手机触屏版 | 显示全部楼层
酒池肉林 发表于 2016-11-29 15:12
想要原ID也行啊,你注册后发个帖,转一下分分和职务就行 ...

原id被老手淫这耳鼻注册了

545

主题

0

精华

250

威望

勤杂工

社区建设奖

发表于 2016-11-29 15:15 简单论坛手机触屏版 | 显示全部楼层
柳儿当当响 发表于 2016-11-29 15:14
原id被老手淫这耳鼻注册了


你要不?要的话我就给你抢回来

63

主题

3

精华

625

威望

版主

超级网管

最佳基友奖2货中的战斗机社区建设奖

 楼主| 发表于 2016-11-29 15:19 简单论坛手机触屏版 | 显示全部楼层
酒池肉林 发表于 2016-11-29 15:15
你要不?要的话我就给你抢回来

要,免得这2货拿我id骗良家妇女

545

主题

0

精华

250

威望

勤杂工

社区建设奖

发表于 2016-11-29 15:20 简单论坛手机触屏版 | 显示全部楼层
柳儿当当响 发表于 2016-11-29 15:19
要,免得这2货拿我id骗良家妇女

545

主题

0

精华

250

威望

勤杂工

社区建设奖

发表于 2016-11-29 15:26 简单论坛手机触屏版 | 显示全部楼层
柳儿当当响 发表于 2016-11-29 15:19
要,免得这2货拿我id骗良家妇女

天黑之前老手淫抢注的你的号就会被改成其他的,你这ID就摇身一边为liujan121

63

主题

3

精华

625

威望

版主

超级网管

最佳基友奖2货中的战斗机社区建设奖

 楼主| 发表于 2016-11-29 15:29 简单论坛手机触屏版 | 显示全部楼层
酒池肉林 发表于 2016-11-29 15:26
天黑之前老手淫抢注的你的号就会被改成其他的,你这ID就摇身一边为liujan121 ...

好人啊,值得普天同庆

1719

主题

2

精华

275

威望

勤杂工

穷、矮、挫……

QQ
发表于 2016-11-29 15:53 | 显示全部楼层
done!
回复

使用道具 举报

1719

主题

2

精华

275

威望

勤杂工

穷、矮、挫……

QQ
发表于 2016-11-29 16:29 | 显示全部楼层
原 liujian121 改成了LSY1024
您需要登录后才可以回帖 登录 | 立即注册

本版积分规则

QQ|Archiver|手机版|小黑屋|简单论坛

GMT+8, 2020-5-30 00:10 , Processed in 0.156045 second(s), 27 queries .

Powered by Discuz! X3.4

© 2001-2013 Comsenz Inc.