找回密码
 立即注册

QQ登录

只需一步,快速开始

快捷登录

搜索
查看: 2393|回复: 7

华纳-97好精选(奥地利索尼母盘香港压制版)liujian121原创

 关闭 [复制链接]

72

主题

4

精华

621

威望

版主

超级网管

Rank: 5Rank: 5

最佳基友奖2货中的战斗机社区建设奖

发表于 2016-11-27 12:41 | 显示全部楼层 |阅读模式
本帖最后由 liujian121 于 2018-6-13 17:28 编辑





曲目

01.叶蒨文 - 扬眉女子
02.郭富成 - 唱这歌
03.郑秀文 - 亲密关系
04.叶蒨文 - 活过
05.吕方 - 传闻
06.纪炎炎 - 原来我可以
07.胡诺言 - 一个诺言
08.郭富城 - 爱的呼唤
09.郑秀文 - 我们的主题曲
10.叶蒨文 - 自强不息
11.吕方 - 爱到厌
12.胡诺言 - 忘记时空(天地无用)
13.郭富城 - 听风的歌
14.叶蒨文 郑秀文 - 谈情说爱
15.郭富城 - 战场上的快乐圣诞 (Celebration Mix)
16.郑秀文 - 亲密关系(Season's Mix)

已删档


本帖子中包含更多资源

您需要 登录 才可以下载或查看,没有帐号?立即注册

x
我只说三句话,包括刚才那句,我的话完了。

72

主题

4

精华

621

威望

版主

超级网管

Rank: 5Rank: 5

最佳基友奖2货中的战斗机社区建设奖

 楼主| 发表于 2016-11-27 12:42 | 显示全部楼层
Exact Audio Copy V1.1 from 23. June 2015

EAC 抓取日志文件从28. 十月 2016, 12:59

华纳群星 / 97好精选BEST of the BEST

使用驱动器  :TSSTcorpDVD+-RW TS-L633J   Adapter: 1  ID: 0

读取模式      : 可靠Secure
使用精确流     : 是
清空音频缓存    : 是
使用 C2 指示器 : 否

读取偏移校正:               : 6
读取 Lead-In 和 Lead-Out : 否
用静音填充抓取中丢失偏移的采样       : 是
去除首尾静音块               : 否
在CRC 计算中使用了空样本       : 是
已用接口                  : Win NT 及 2000 本地 Win32 接口

所用输出模式: : 内部 WAV 函数
样本格式    : 44.100 Hz; 16 Bit; 立体声


已抓取 CD 的 TOC

     音轨 |    起始    |    长度    |  起始扇区  |  结束扇区  
    --------------------------------------------
      1 |  0:00.00 |  3:21.07 |      0 |  15081
      2 |  3:21.07 |  2:59.73 |  15082 |  28579
      3 |  6:21.05 |  4:03.42 |  28580 |  46846
      4 | 10:24.47 |  3:51.30 |  46847 |  64201
      5 | 14:16.02 |  4:10.00 |  64202 |  82951
      6 | 18:26.02 |  4:29.52 |  82952 | 103178
      7 | 22:55.54 |  3:39.31 | 103179 | 119634
      8 | 26:35.10 |  3:51.72 | 119635 | 137031
      9 | 30:27.07 |  3:34.15 | 137032 | 153096
     10 | 34:01.22 |  3:48.18 | 153097 | 170214
     11 | 37:49.40 |  4:21.07 | 170215 | 189796
     12 | 42:10.47 |  4:16.60 | 189797 | 209056
     13 | 46:27.32 |  3:44.18 | 209057 | 225874
     14 | 50:11.50 |  4:06.65 | 225875 | 244389
     15 | 54:18.40 |  3:00.42 | 244390 | 257931
     16 | 57:19.07 |  3:18.23 | 257932 | 272804


范围状态及错误

已选择范围

     文件名 C:\Users\Administrator\Desktop\华纳-97好精选BEST of the BEST(奥地利索尼母盘香港压制版)liujian121原创\华纳群星 - 97好精选BEST of the BEST.wav

     峰值电平 100.0 %
     抓取速度 4.2 X
     范围质量 99.9 %
     复制 CRC CD675BCF
     复制成功

没有错误发生


AccurateRip 摘要

音轨  1  精确地校准抓取  3)  [1E5B1451]  (AR v2)
音轨  2  精确地校准抓取  3)  [09A461DB]  (AR v2)
音轨  3  精确地校准抓取  3)  [B3ADA855]  (AR v2)
音轨  4  精确地校准抓取  3)  [BB26469E]  (AR v2)
音轨  5  精确地校准抓取  3)  [38619227]  (AR v2)
音轨  6  精确地校准抓取  3)  [D4802722]  (AR v2)
音轨  7  精确地校准抓取  3)  [84D4F221]  (AR v2)
音轨  8  精确地校准抓取  3)  [1559C323]  (AR v2)
音轨  9  精确地校准抓取  3)  [E53DBB4E]  (AR v2)
音轨 10  精确地校准抓取  3)  [A251A926]  (AR v2)
音轨 11  精确地校准抓取  3)  [7581BAD8]  (AR v2)
音轨 12  精确地校准抓取  3)  [2B3035AE]  (AR v2)
音轨 13  精确地校准抓取  3)  [0798DB0B]  (AR v2)
音轨 14  精确地校准抓取  3)  [5880D287]  (AR v2)
音轨 15  精确地校准抓取  3)  [13EFE954]  (AR v2)
音轨 16  精确地校准抓取  3)  [644E5799]  (AR v2)

所有音轨精确校准抓取

状态报告结尾

---- CUETools DB Plugin V2.1.6

[CTDB TOCID: sYW6QRJOBOPJtO3WB1TYXayy_Hc-] found
Submit result: 操作超时
Track | CTDB Status
  1   | (10/10) Accurately ripped
  2   | (10/10) Accurately ripped
  3   | (10/10) Accurately ripped
  4   | (10/10) Accurately ripped
  5   | (10/10) Accurately ripped
  6   | (10/10) Accurately ripped
  7   | (10/10) Accurately ripped
  8   | (10/10) Accurately ripped
  9   | (10/10) Accurately ripped
10   | (10/10) Accurately ripped
11   | (10/10) Accurately ripped
12   | (10/10) Accurately ripped
13   | (10/10) Accurately ripped
14   | (10/10) Accurately ripped
15   | (10/10) Accurately ripped
16   | (10/10) Accurately ripped

我只说三句话,包括刚才那句,我的话完了。

72

主题

4

精华

621

威望

版主

超级网管

Rank: 5Rank: 5

最佳基友奖2货中的战斗机社区建设奖

 楼主| 发表于 2016-11-27 12:42 | 显示全部楼层
REM DISCID D70E3510
REM COMMENT "ExactAudioCopy v1.1"
PERFORMER "华纳群星"
TITLE "97好精选BEST of the BEST"
FILE "华纳群星 - 97好精选BEST of the BEST.wav" WAVE
  TRACK 01 AUDIO
    TITLE "葉蒨文/揚眉女子"
    PERFORMER "华纳群星"
    INDEX 01 00:00:00
  TRACK 02 AUDIO
    TITLE "郭富成/唱這歌"
    PERFORMER "华纳群星"
    INDEX 00 03:20:27
    INDEX 01 03:21:07
  TRACK 03 AUDIO
    TITLE "鄭秀文/親密關係"
    PERFORMER "华纳群星"
    INDEX 00 06:20:42
    INDEX 01 06:21:05
  TRACK 04 AUDIO
    TITLE "葉蒨文/活過"
    PERFORMER "华纳群星"
    INDEX 00 10:24:42
    INDEX 01 10:24:47
  TRACK 05 AUDIO
    TITLE "吕方/傳聞"
    PERFORMER "华纳群星"
    INDEX 00 14:15:67
    INDEX 01 14:16:02
  TRACK 06 AUDIO
    TITLE "紀炎炎/原來我可以"
    PERFORMER "华纳群星"
    INDEX 00 18:25:32
    INDEX 01 18:26:02
  TRACK 07 AUDIO
    TITLE "胡諾言/一個諾言"
    PERFORMER "华纳群星"
    INDEX 00 22:55:32
    INDEX 01 22:55:54
  TRACK 08 AUDIO
    TITLE "郭富城/愛的呼喚"
    PERFORMER "华纳群星"
    INDEX 00 26:34:67
    INDEX 01 26:35:10
  TRACK 09 AUDIO
    TITLE "鄭秀文/我們的主題曲"
    PERFORMER "华纳群星"
    INDEX 00 30:26:67
    INDEX 01 30:27:07
  TRACK 10 AUDIO
    TITLE "葉蒨文/自強不息"
    PERFORMER "华纳群星"
    INDEX 00 34:01:07
    INDEX 01 34:01:22
  TRACK 11 AUDIO
    TITLE "吕方/愛到厭"
    PERFORMER "华纳群星"
    INDEX 01 37:49:40
  TRACK 12 AUDIO
    TITLE "胡諾言/忘記時空(天地無用)"
    PERFORMER "华纳群星"
    INDEX 00 42:10:20
    INDEX 01 42:10:47
  TRACK 13 AUDIO
    TITLE "郭富城/聽風的歌"
    PERFORMER "华纳群星"
    INDEX 00 46:27:12
    INDEX 01 46:27:32
  TRACK 14 AUDIO
    TITLE "葉蒨文/鄭秀文/談情說愛"
    PERFORMER "华纳群星"
    INDEX 01 50:11:50
  TRACK 15 AUDIO
    TITLE "郭富城/戰場上的快樂聖誕 (Celebration Mix)"
    PERFORMER "华纳群星"
    INDEX 00 54:18:00
    INDEX 01 54:18:40
  TRACK 16 AUDIO
    TITLE "鄭秀文/親密關係(Season's Mix)"
    PERFORMER "华纳群星"
    INDEX 00 57:18:34
    INDEX 01 57:19:07
我只说三句话,包括刚才那句,我的话完了。

15

主题

1

精华

181

威望

超级会员

Rank: 7Rank: 7Rank: 7

发表于 2016-11-28 15:40 | 显示全部楼层
你和小宝什么关系? 发这个不是小宝的义务嘛

118

主题

3

精华

278

威望

版主

Rank: 5Rank: 5

社区建设奖

发表于 2016-11-28 22:40 | 显示全部楼层
顶顶更有劲

35

主题

0

精华

488

威望

版主

Rank: 5Rank: 5

2货中的战斗机最佳基友奖

QQ
发表于 2016-11-29 04:56 | 显示全部楼层
回复

使用道具 举报

72

主题

4

精华

621

威望

版主

超级网管

Rank: 5Rank: 5

最佳基友奖2货中的战斗机社区建设奖

 楼主| 发表于 2017-4-29 18:53 | 显示全部楼层

我只说三句话,包括刚才那句,我的话完了。

0

主题

0

精华

0

威望

新手上路

Rank: 1

发表于 2018-3-17 20:17 | 显示全部楼层
{:1_150:}{:1_150:}{:1_150:}{:1_150:}{:1_154:}
您需要登录后才可以回帖 登录 | 立即注册

本版积分规则

QQ|Archiver|手机版|小黑屋|简单论坛

GMT+8, 2021-10-16 22:28 , Processed in 0.056905 second(s), 25 queries .

Powered by Discuz! X3.4

© 2001-2013 Comsenz Inc.