找回密码
 立即注册

QQ登录

只需一步,快速开始

快捷登录

搜索
查看: 1144|回复: 9

[WAV][王菲-唱游大世界香港演唱会(香港EMI唱片)liujian121原创

 关闭 [复制链接]

63

主题

3

精华

625

威望

版主

超级网管

最佳基友奖2货中的战斗机社区建设奖

发表于 2016-11-24 15:22 | 显示全部楼层 |阅读模式
本帖最后由 liujian121 于 2018-6-13 17:31 编辑






专辑曲目:

Disc 1

01. Opening
02. 感情生活
03. 浮躁
04. 闷
05. 暗涌
06. 天空
07. 脸
08. 迷路
09. 梦中人
10. 梦游
11. 原谅自己
12. 末日
13. 堕落
14. 天使
15. 怀念
16. 梦醒了
17. 但愿人长久

Disc 2

01. 情诫
02. 一人分饰两角
03. 为非作歹
04. Di-Dar
05. 暧昧
06. Bohemian Rhapsody
07. 你快乐所以我快乐
08. Auld Lang Syne
09. 约定
10. 偿还
11. 我愿意
12. 执迷不悔

已删档


本帖子中包含更多资源

您需要 登录 才可以下载或查看,没有帐号?立即注册

x
我只说三句话,包括刚才那句,我的话完了。

63

主题

3

精华

625

威望

版主

超级网管

最佳基友奖2货中的战斗机社区建设奖

 楼主| 发表于 2016-11-24 15:23 | 显示全部楼层
CD1:

Exact Audio Copy V1.1 from 23. June 2015

EAC 抓取日志文件从19. 九月 2016, 21:09

王菲 / 唱游大世界王菲香港演唱会98-99

使用驱动器  :TSSTcorpDVD+-RW TS-L633J   Adapter: 1  ID: 0

读取模式      : 可靠Secure
使用精确流     : 是
清空音频缓存    : 是
使用 C2 指示器 : 否

读取偏移校正:               : 6
读取 Lead-In 和 Lead-Out : 否
用静音填充抓取中丢失偏移的采样       : 是
去除首尾静音块               : 否
在CRC 计算中使用了空样本       : 是
已用接口                  : Win NT 及 2000 本地 Win32 接口

所用输出模式: : 内部 WAV 函数
样本格式    : 44.100 Hz; 16 Bit; 立体声


已抓取 CD 的 TOC

     音轨 |    起始    |    长度    |  起始扇区  |  结束扇区  
    --------------------------------------------
      1 |  0:00.00 |  2:01.42 |      0 |   9116
      2 |  2:01.42 |  4:46.23 |   9117 |  30589
      3 |  6:47.65 |  2:47.32 |  30590 |  43146
      4 |  9:35.22 |  5:14.68 |  43147 |  66764
      5 | 14:50.15 |  5:15.57 |  66765 |  90446
      6 | 20:05.72 |  4:58.35 |  90447 | 112831
      7 | 25:04.32 |  3:38.15 | 112832 | 129196
      8 | 28:42.47 |  5:17.35 | 129197 | 153006
      9 | 34:00.07 |  3:12.45 | 153007 | 167451
     10 | 37:12.52 |  4:30.58 | 167452 | 187759
     11 | 41:43.35 |  6:23.20 | 187760 | 216504
     12 | 48:06.55 |  3:43.70 | 216505 | 233299
     13 | 51:50.50 |  3:35.15 | 233300 | 249439
     14 | 55:25.65 |  4:42.72 | 249440 | 270661
     15 | 60:08.62 |  3:15.15 | 270662 | 285301
     16 | 63:24.02 |  5:13.15 | 285302 | 308791
     17 | 68:37.17 |  3:59.08 | 308792 | 326724


范围状态及错误

已选择范围

     文件名 C:\Users\Administrator\Desktop\王菲-唱游大世界王菲香港演唱会98-99(香港EMI唱片)liujian121原创\CD1\王菲 - 唱游大世界王菲香港演唱会98-99.wav

     峰值电平 99.4 %
     抓取速度 4.8 X
     范围质量 100.0 %
     复制 CRC B30E9DF3
     复制成功

没有错误发生


AccurateRip 摘要

音轨  1  精确地校准抓取  7)  [CEF8EADC]  (AR v2)
音轨  2  精确地校准抓取  7)  [F7C60AA3]  (AR v2)
音轨  3  精确地校准抓取  7)  [05EAD96A]  (AR v2)
音轨  4  精确地校准抓取  7)  [7272A2B1]  (AR v2)
音轨  5  精确地校准抓取  7)  [CC8BF641]  (AR v2)
音轨  6  精确地校准抓取  7)  [FB3F0B16]  (AR v2)
音轨  7  精确地校准抓取  5)  [F2D95552]  (AR v2)
音轨  8  精确地校准抓取  6)  [D87B8E76]  (AR v2)
音轨  9  精确地校准抓取  6)  [CFE4B9CD]  (AR v2)
音轨 10  精确地校准抓取  6)  [314E77DE]  (AR v2)
音轨 11  精确地校准抓取  6)  [7318029A]  (AR v2)
音轨 12  精确地校准抓取  6)  [DA343DC9]  (AR v2)
音轨 13  精确地校准抓取  6)  [13CD9FD3]  (AR v2)
音轨 14  精确地校准抓取  6)  [CB3F52F0]  (AR v2)
音轨 15  精确地校准抓取  6)  [9C8F2C6A]  (AR v2)
音轨 16  精确地校准抓取  6)  [3C52DB0C]  (AR v2)
音轨 17  精确地校准抓取  6)  [3F04B8CA]  (AR v2)

所有音轨精确校准抓取

状态报告结尾

---- CUETools DB Plugin V2.1.6

[CTDB TOCID: 7ZQT81CzONLyQtCjl7D3AvTN0Mw-] found
Submit result: 7ZQT81CzONLyQtCjl7D3AvTN0Mw- has been confirmed
Track | CTDB Status
  1   | (7/7) Accurately ripped
  2   | (7/7) Accurately ripped
  3   | (7/7) Accurately ripped
  4   | (7/7) Accurately ripped
  5   | (7/7) Accurately ripped
  6   | (7/7) Accurately ripped
  7   | (7/7) Accurately ripped
  8   | (7/7) Accurately ripped
  9   | (7/7) Accurately ripped
10   | (7/7) Accurately ripped
11   | (7/7) Accurately ripped
12   | (7/7) Accurately ripped
13   | (7/7) Accurately ripped
14   | (7/7) Accurately ripped
15   | (7/7) Accurately ripped
16   | (7/7) Accurately ripped
17   | (7/7) Accurately ripped

CD2:

Exact Audio Copy V1.1 from 23. June 2015

EAC 抓取日志文件从19. 九月 2016, 21:27

王菲 / 唱游大世界王菲香港演唱会98-99

使用驱动器  :TSSTcorpDVD+-RW TS-L633J   Adapter: 1  ID: 0

读取模式      : 可靠Secure
使用精确流     : 是
清空音频缓存    : 是
使用 C2 指示器 : 否

读取偏移校正:               : 6
读取 Lead-In 和 Lead-Out : 否
用静音填充抓取中丢失偏移的采样       : 是
去除首尾静音块               : 否
在CRC 计算中使用了空样本       : 是
已用接口                  : Win NT 及 2000 本地 Win32 接口

所用输出模式: : 内部 WAV 函数
样本格式    : 44.100 Hz; 16 Bit; 立体声


已抓取 CD 的 TOC

     音轨 |    起始    |    长度    |  起始扇区  |  结束扇区  
    --------------------------------------------
      1 |  0:00.00 |  4:10.57 |      0 |  18806
      2 |  4:10.57 |  2:42.70 |  18807 |  31026
      3 |  6:53.52 |  3:48.18 |  31027 |  48144
      4 | 10:41.70 |  2:08.45 |  48145 |  57789
      5 | 12:50.40 |  6:19.30 |  57790 |  86244
      6 | 19:09.70 |  6:27.42 |  86245 | 115311
      7 | 25:37.37 |  4:12.38 | 115312 | 134249
      8 | 29:50.00 |  3:00.35 | 134250 | 147784
      9 | 32:50.35 |  4:29.17 | 147785 | 167976
     10 | 37:19.52 |  4:01.68 | 167977 | 186119
     11 | 41:21.45 |  6:08.55 | 186120 | 213774
     12 | 47:30.25 |  5:58.02 | 213775 | 240626


范围状态及错误

已选择范围

     文件名 C:\Users\Administrator\Desktop\王菲-唱游大世界王菲香港演唱会98-99(香港EMI唱片)liujian121原创\CD2\王菲 - 唱游大世界王菲香港演唱会98-99.wav

     峰值电平 98.8 %
     抓取速度 4.3 X
     范围质量 100.0 %
     复制 CRC 16E1FFC3
     复制成功

没有错误发生


AccurateRip 摘要

音轨  1  精确地校准抓取  6)  [1CA2B508]  (AR v2)
音轨  2  精确地校准抓取  6)  [F2B164A9]  (AR v2)
音轨  3  精确地校准抓取  6)  [D6CFDB93]  (AR v2)
音轨  4  精确地校准抓取  6)  [9AD652DA]  (AR v2)
音轨  5  精确地校准抓取  6)  [7DD440F4]  (AR v2)
音轨  6  精确地校准抓取  6)  [1996E849]  (AR v2)
音轨  7  精确地校准抓取  5)  [457AE860]  (AR v2)
音轨  8  精确地校准抓取  6)  [DACD5F43]  (AR v2)
音轨  9  精确地校准抓取  5)  [F6E631A2]  (AR v2)
音轨 10  精确地校准抓取  5)  [5210850C]  (AR v2)
音轨 11  精确地校准抓取  5)  [65875D89]  (AR v2)
音轨 12  精确地校准抓取  5)  [EFDA0079]  (AR v2)

所有音轨精确校准抓取

状态报告结尾

---- CUETools DB Plugin V2.1.6

[CTDB TOCID: 1F6.rULoH**pLj8M.GI_rAs2VQ-] found
Submit result: 1F6.rULoH**pLj8M.GI_rAs2VQ- has been confirmed
Track | CTDB Status
  1   | (3/3) Accurately ripped
  2   | (3/3) Accurately ripped
  3   | (3/3) Accurately ripped
  4   | (3/3) Accurately ripped
  5   | (3/3) Accurately ripped
  6   | (3/3) Accurately ripped
  7   | (3/3) Accurately ripped
  8   | (3/3) Accurately ripped
  9   | (3/3) Accurately ripped
10   | (3/3) Accurately ripped
11   | (3/3) Accurately ripped
12   | (3/3) Accurately ripped
我只说三句话,包括刚才那句,我的话完了。

63

主题

3

精华

625

威望

版主

超级网管

最佳基友奖2货中的战斗机社区建设奖

 楼主| 发表于 2016-11-24 15:23 | 显示全部楼层
REM DISCID D8110411
REM COMMENT "ExactAudioCopy v1.1"
PERFORMER "王菲"
TITLE "唱游大世界王菲香港演唱会98-99"
FILE "王菲 - 唱游大世界王菲香港演唱会98-99.wav" WAVE
  TRACK 01 AUDIO
    TITLE "Opening"
    PERFORMER "王菲"
    INDEX 01 00:00:00
  TRACK 02 AUDIO
    TITLE "感情生活"
    PERFORMER "王菲"
    INDEX 00 02:01:40
    INDEX 01 02:01:42
  TRACK 03 AUDIO
    TITLE "浮躁"
    PERFORMER "王菲"
    INDEX 00 06:47:62
    INDEX 01 06:47:65
  TRACK 04 AUDIO
    TITLE "闷"
    PERFORMER "王菲"
    INDEX 01 09:35:22
  TRACK 05 AUDIO
    TITLE "暗涌"
    PERFORMER "王菲"
    INDEX 00 14:50:12
    INDEX 01 14:50:15
  TRACK 06 AUDIO
    TITLE "天空"
    PERFORMER "王菲"
    INDEX 01 20:05:72
  TRACK 07 AUDIO
    TITLE "脸"
    PERFORMER "王菲"
    INDEX 01 25:04:32
  TRACK 08 AUDIO
    TITLE "迷路"
    PERFORMER "王菲"
    INDEX 01 28:42:47
  TRACK 09 AUDIO
    TITLE "梦中人"
    PERFORMER "王菲"
    INDEX 01 34:00:07
  TRACK 10 AUDIO
    TITLE "梦游"
    PERFORMER "王菲"
    INDEX 01 37:12:52
  TRACK 11 AUDIO
    TITLE "原谅自己"
    PERFORMER "王菲"
    INDEX 01 41:43:35
  TRACK 12 AUDIO
    TITLE "末日"
    PERFORMER "王菲"
    INDEX 01 48:06:55
  TRACK 13 AUDIO
    TITLE "堕落"
    PERFORMER "王菲"
    INDEX 01 51:50:50
  TRACK 14 AUDIO
    TITLE "天使"
    PERFORMER "王菲"
    INDEX 00 55:25:62
    INDEX 01 55:25:65
  TRACK 15 AUDIO
    TITLE "怀念"
    PERFORMER "王菲"
    INDEX 00 60:08:61
    INDEX 01 60:08:62
  TRACK 16 AUDIO
    TITLE "梦醒了"
    PERFORMER "王菲"
    INDEX 01 63:24:02
  TRACK 17 AUDIO
    TITLE "但愿人长久"
    PERFORMER "王菲"
    INDEX 01 68:37:17
我只说三句话,包括刚才那句,我的话完了。

63

主题

3

精华

625

威望

版主

超级网管

最佳基友奖2货中的战斗机社区建设奖

 楼主| 发表于 2016-11-24 15:23 | 显示全部楼层
REM DISCID 9D0C880C
REM COMMENT "ExactAudioCopy v1.1"
PERFORMER "王菲"
TITLE "唱游大世界王菲香港演唱会98-99"
FILE "王菲 - 唱游大世界王菲香港演唱会98-99.wav" WAVE
  TRACK 01 AUDIO
    TITLE "情诫"
    PERFORMER "王菲"
    INDEX 01 00:00:00
  TRACK 02 AUDIO
    TITLE "一人分饰两角"
    PERFORMER "王菲"
    INDEX 01 04:10:57
  TRACK 03 AUDIO
    TITLE "为非作歹"
    PERFORMER "王菲"
    INDEX 01 06:53:52
  TRACK 04 AUDIO
    TITLE "Di-Dar"
    PERFORMER "王菲"
    INDEX 01 10:41:70
  TRACK 05 AUDIO
    TITLE "暧昧"
    PERFORMER "王菲"
    INDEX 01 12:50:40
  TRACK 06 AUDIO
    TITLE "Bohemian Rhapsody"
    PERFORMER "王菲"
    INDEX 01 19:09:70
  TRACK 07 AUDIO
    TITLE "你快乐所以我快乐"
    PERFORMER "王菲"
    INDEX 01 25:37:37
  TRACK 08 AUDIO
    TITLE "Auld Lang Syne"
    PERFORMER "王菲"
    INDEX 01 29:50:00
  TRACK 09 AUDIO
    TITLE "约定"
    PERFORMER "王菲"
    INDEX 01 32:50:35
  TRACK 10 AUDIO
    TITLE "偿还"
    PERFORMER "王菲"
    INDEX 01 37:19:52
  TRACK 11 AUDIO
    TITLE "我愿意"
    PERFORMER "王菲"
    INDEX 00 41:21:40
    INDEX 01 41:21:45
  TRACK 12 AUDIO
    TITLE "执迷不悔"
    PERFORMER "王菲"
    INDEX 01 47:30:25
我只说三句话,包括刚才那句,我的话完了。

545

主题

0

精华

250

威望

勤杂工

社区建设奖

发表于 2016-11-24 23:53 简单论坛手机触屏版 | 显示全部楼层
我靠!!!给力!!!!


柳儿要多少分?你说我就给

63

主题

3

精华

625

威望

版主

超级网管

最佳基友奖2货中的战斗机社区建设奖

 楼主| 发表于 2016-11-25 10:58 简单论坛手机触屏版 | 显示全部楼层
酒池肉林 发表于 2016-11-24 23:53
我靠!!!给力!!!!



先来两万分玩玩

545

主题

0

精华

250

威望

勤杂工

社区建设奖

发表于 2016-11-25 14:37 简单论坛手机触屏版 | 显示全部楼层
柳儿当当响 发表于 2016-11-25 10:58
先来两万分玩玩

好!别说出去哈~~~

63

主题

3

精华

625

威望

版主

超级网管

最佳基友奖2货中的战斗机社区建设奖

 楼主| 发表于 2016-11-25 14:52 | 显示全部楼层
酒池肉林 发表于 2016-11-25 14:37
好!别说出去哈~~~

牛比上挂秤砣,最牛比啊
我只说三句话,包括刚才那句,我的话完了。

545

主题

0

精华

250

威望

勤杂工

社区建设奖

发表于 2016-11-25 14:57 简单论坛手机触屏版 | 显示全部楼层
柳儿当当响 发表于 2016-11-25 14:52
牛比上挂秤砣,最牛比啊




看谁能2过你

10

主题

0

精华

113

威望

超级会员

Rank: 7Rank: 7Rank: 7

最佳基友奖2货中的战斗机

发表于 2016-11-25 17:56 | 显示全部楼层
先下载一个,谢谢了
您需要登录后才可以回帖 登录 | 立即注册

本版积分规则

QQ|Archiver|手机版|小黑屋|简单论坛

GMT+8, 2020-5-30 01:13 , Processed in 0.150049 second(s), 25 queries .

Powered by Discuz! X3.4

© 2001-2013 Comsenz Inc.