找回密码
 立即注册

QQ登录

只需一步,快速开始

快捷登录

搜索
查看: 2370|回复: 14

日本版邓丽君中国语金曲集

[复制链接]

9

主题

2

精华

83

威望

版主

社区建设奖优秀版主奖

发表于 2014-10-8 21:02 | 显示全部楼层 |阅读模式
本帖最后由 音声音世 于 2014-10-8 21:11 编辑

日本版邓丽君中国语金曲集  
日本三菱公司压碟 声音绝对发烧

游客,如果您要查看本帖隐藏内容请回复



解压缩密码  888888



Exact Audio Copy V1.0 beta 3 from 29. August 2011

EAC 抓取日志文件从18. 七月 2014, 1:56

邓丽君 音声音世原抓CD / 中国语金曲集

使用驱动器  :PIONEER DVD-ROM DVD-232   Adapter: 2  ID: 0

读取模式      : 可靠Secure
使用精确流     : 是
清空音频缓存    : 是
使用 C2 指示器 : 否

读取偏移校正:               : 6
读取 Lead-In 和 Lead-Out : 否
用静音填充抓取中丢失偏移的采样       : 是
去除首尾静音块               : 否
在CRC 计算中使用了空样本       : 是
已用接口                  : Win NT 及 2000 本地 Win32 接口

所用输出模式: : 内部 WAV 函数
样本格式    : 44.100 Hz; 16 Bit; 立体声


已抓取 CD 的 TOC

     音轨 |    起始    |    长度    |  起始扇区  |  结束扇区  
    --------------------------------------------
      1 |  0:00.00 |  2:55.35 |      0 |  13159
      2 |  2:55.35 |  3:16.17 |  13160 |  27876
      3 |  6:11.52 |  2:56.03 |  27877 |  41079
      4 |  9:07.55 |  2:28.45 |  41080 |  52224
      5 | 11:36.25 |  3:24.20 |  52225 |  67544
      6 | 15:00.45 |  3:30.30 |  67545 |  83324
      7 | 18:31.00 |  3:50.07 |  83325 | 100581
      8 | 22:21.07 |  3:47.03 | 100582 | 117609
      9 | 26:08.10 |  4:19.37 | 117610 | 137071
     10 | 30:27.47 |  3:22.70 | 137072 | 152291
     11 | 33:50.42 |  2:29.05 | 152292 | 163471
     12 | 36:19.47 |  3:22.05 | 163472 | 178626
     13 | 39:41.52 |  2:16.25 | 178627 | 188851
     14 | 41:58.02 |  4:39.35 | 188852 | 209811


范围状态及错误

已选择范围

     文件名 G:\音乐\原抓CD7\邓丽君 音声音世原抓CD - 中国语金曲集\邓丽君 音声音世原抓CD - 中国语金曲集.wav

     峰值电平 100.0 %
     抓取速度 3.8 X
     范围质量 100.0 %
     复制 CRC E2B3678B
     复制成功

没有错误发生



状态报告结尾

---- CUETools DB Plugin V2.1.3

[CTDB TOCID: 5ogAp4aAdlS2efb8Uz6ja.Ot.YE-] disk not present in database, Submit result: 5ogAp4aAdlS2efb8Uz6ja.Ot.YE- has been uploaded


试听链接
Flash: http://player.5 /p2_130706992.swf


此资源供爱好音乐的朋友交流,请您于下载二十四小时后删除。
如您喜欢本资源,请购买正版CD,切勿用于商业目的。




本帖子中包含更多资源

您需要 登录 才可以下载或查看,没有帐号?立即注册

x

评分

参与人数 1威望 +5 金钱 +200 收起 理由
小宝 + 5 + 200

查看全部评分

0

主题

0

精华

0

威望

新手上路

Rank: 1

发表于 2014-10-9 14:23 | 显示全部楼层
谢谢版主
回复

使用道具 举报

1

主题

0

精华

43

威望

高级会员

Rank: 5Rank: 5

发表于 2014-10-9 17:28 | 显示全部楼层
多谢。。。
回复

使用道具 举报

0

主题

0

精华

0

威望

新手上路

Rank: 1

发表于 2014-10-19 19:31 | 显示全部楼层
好贴,顶。
回复

使用道具 举报

6

主题

0

精华

78

威望

特级会员

Rank: 6Rank: 6

发表于 2014-12-21 16:10 | 显示全部楼层
谢谢分享
回复

使用道具 举报

2

主题

0

精华

60

威望

特级会员

Rank: 6Rank: 6

社区建设奖

发表于 2014-12-22 18:56 | 显示全部楼层
o
回复

使用道具 举报

3

主题

0

精华

32

威望

高级会员

Rank: 5Rank: 5

发表于 2015-2-14 17:12 | 显示全部楼层
谢谢分享
回复

使用道具 举报

1

主题

0

精华

0

威望

新手上路

Rank: 1

发表于 2015-9-19 18:01 简单论坛手机触屏版 | 显示全部楼层
谢谢好歌分享

0

主题

0

精华

0

威望

新手上路

Rank: 1

发表于 2016-1-21 21:43 | 显示全部楼层
1不知能不能下。

0

主题

0

精华

0

威望

新手上路

Rank: 1

发表于 2016-12-4 06:20 简单论坛手机触屏版 | 显示全部楼层
包好回复啊。

58

主题

0

精华

108

威望

版主

QQ
发表于 2016-12-4 09:39 简单论坛手机触屏版 | 显示全部楼层
十有八九连接件事小。

58

主题

0

精华

108

威望

版主

QQ
发表于 2016-12-9 20:25 | 显示全部楼层
事实证明,
本链接可以下载。
大爷我正在下载!!!
精神病人思路广,弱智儿童欢乐多。

10

主题

0

精华

84

威望

特级会员

Rank: 6Rank: 6

发表于 2017-1-6 00:24 | 显示全部楼层
下来录磁带{:1_224:}

3

主题

0

精华

26

威望

高级会员

Rank: 5Rank: 5

发表于 2017-1-6 21:14 | 显示全部楼层
多上古典呀....版主

0

主题

0

精华

0

威望

新手上路

Rank: 1

发表于 2020-3-11 21:16 | 显示全部楼层
谢谢
回复

使用道具 举报

您需要登录后才可以回帖 登录 | 立即注册

本版积分规则

QQ|Archiver|手机版|小黑屋|简单论坛

GMT+8, 2020-5-30 00:01 , Processed in 0.184185 second(s), 31 queries .

Powered by Discuz! X3.4

© 2001-2013 Comsenz Inc.