找回密码
 立即注册

QQ登录

只需一步,快速开始

搜索
查看: 210|回复: 5

[WAV][Shania Twain-Come On Over(加拿大版)liujian121原创][百度3%]

[复制链接]
  • TA的每日心情

    2019-11-19 07:49
  • 签到天数: 130 天

    [LV.7]常住居民III

    61

    主题

    3

    精华

    625

    威望

    版主

    超级网管

    最佳基友奖2货中的战斗机社区建设奖

    发表于 2018-10-14 15:51 | 显示全部楼层 |阅读模式






    曲目:
    Tracklist:
    1 You're Still The One  3:33  
    2 When  3:38  
    3 From This Moment On  4:52  
    4 Black Eyes, Blue Tears  3:37  
    5 I Won't Leave You Lonely  4:07  
    6 I'm Holdin' On To Love (To Save My Life)  3:27  
    7 Come On Over  2:54  
    8 You've Got A Way (Notting Hill Remix)  3:25  
    9 Whatever You Do! Don't!  3:49  
    10 Man! I Feel Like A Woman!  3:54  
    11 Love Gets Me Everytime  3:33  
    12 Don't Be Stupid (You Know I Love You)  3:34  
    13 That Don't Impress Me Much (UK Dance Mix)   3:59  
    14 Honey, I'm Home  3:34  
    15 If You Wanna Touch Her, Ask!  4:14  
    16 Rock This Country!  4:26

    本专辑为CD抓轨,仅供个人试听,切勿外传,请自觉于下载后24小时内删除,任何人不得用于商业用途!如果喜欢本专辑,请购买正版,谢谢合作!

    包内WAV+CUE+LOG+600DPI高清扫图。


    游客,如果您要查看本帖隐藏内容请回复



    本帖子中包含更多资源

    您需要 登录 才可以下载或查看,没有帐号?立即注册

    x
    我只说三句话,包括刚才那句,我的话完了。
  • TA的每日心情

    2019-11-19 07:49
  • 签到天数: 130 天

    [LV.7]常住居民III

    61

    主题

    3

    精华

    625

    威望

    版主

    超级网管

    最佳基友奖2货中的战斗机社区建设奖

     楼主| 发表于 2018-10-14 15:51 | 显示全部楼层
    Exact Audio Copy V1.1 from 23. June 2015

    EAC 抓取日志文件从11. 九月 2018, 16:55

    Shania Twain / Come On Over

    使用驱动器  :TSSTcorpDVD+-RW TS-L633J   Adapter: 1  ID: 0

    读取模式      : 可靠Secure
    使用精确流     : 是
    清空音频缓存    : 是
    使用 C2 指示器 : 否

    读取偏移校正:               : 6
    读取 Lead-In 和 Lead-Out : 否
    用静音填充抓取中丢失偏移的采样       : 是
    去除首尾静音块               : 否
    在CRC 计算中使用了空样本       : 是
    已用接口                  : Win NT 及 2000 本地 Win32 接口

    所用输出模式: : 内部 WAV 函数
    样本格式    : 44.100 Hz; 16 Bit; 立体声


    已抓取 CD 的 TOC

         音轨 |    起始    |    长度    |  起始扇区  |  结束扇区  
        --------------------------------------------
          1 |  0:00.00 |  3:31.67 |      0 |  15891
          2 |  3:31.67 |  3:38.08 |  15892 |  32249
          3 |  7:10.00 |  4:51.35 |  32250 |  54109
          4 | 12:01.35 |  3:36.67 |  54110 |  70376
          5 | 15:38.27 |  4:06.18 |  70377 |  88844
          6 | 19:44.45 |  3:26.20 |  88845 | 104314
          7 | 23:10.65 |  2:53.35 | 104315 | 117324
          8 | 26:04.25 |  3:19.27 | 117325 | 132276
          9 | 29:23.52 |  3:48.20 | 132277 | 149396
         10 | 33:11.72 |  3:53.03 | 149397 | 166874
         11 | 37:05.00 |  3:32.57 | 166875 | 182831
         12 | 40:37.57 |  3:33.50 | 182832 | 198856
         13 | 44:11.32 |  3:58.50 | 198857 | 216756
         14 | 48:10.07 |  3:33.25 | 216757 | 232756
         15 | 51:43.32 |  4:13.38 | 232757 | 251769
         16 | 55:56.70 |  4:25.50 | 251770 | 271694


    范围状态及错误

    已选择范围

         文件名 C:\Users\Administrator\Desktop\Shania Twain-Come On Over(加拿大版)liujian121原创\Shania Twain - Come On Over.wav

         峰值电平 99.7 %
         抓取速度 1.2 X
         范围质量 100.0 %
         复制 CRC 3C8A5912
         复制成功

    没有错误发生


    AccurateRip 摘要

    音轨  1  精确地校准抓取  20)  [FEED63B7]  (AR v2)
    音轨  2  精确地校准抓取  19)  [3DCA8072]  (AR v2)
    音轨  3  精确地校准抓取  18)  [864EB9FA]  (AR v2)
    音轨  4  精确地校准抓取  19)  [7913FCEE]  (AR v2)
    音轨  5  精确地校准抓取  19)  [348CF758]  (AR v2)
    音轨  6  精确地校准抓取  19)  [EF7DAD83]  (AR v2)
    音轨  7  精确地校准抓取  19)  [FE204A38]  (AR v2)
    音轨  8  精确地校准抓取  19)  [C45FBD91]  (AR v2)
    音轨  9  精确地校准抓取  19)  [9770DB7A]  (AR v2)
    音轨 10  精确地校准抓取  19)  [2096B0DF]  (AR v2)
    音轨 11  精确地校准抓取  19)  [2DB5827C]  (AR v2)
    音轨 12  精确地校准抓取  19)  [204B6DE8]  (AR v2)
    音轨 13  精确地校准抓取  19)  [971F9053]  (AR v2)
    音轨 14  精确地校准抓取  17)  [CBE2E632]  (AR v2)
    音轨 15  精确地校准抓取  18)  [1A72864D]  (AR v2)
    音轨 16  精确地校准抓取  16)  [FC4E1936]  (AR v2)

    所有音轨精确校准抓取

    状态报告结尾

    ---- CUETools DB Plugin V2.1.6

    [CTDB TOCID: ZeLjHQ.8mCLM4pLf0PiHvna8E3M-] found
    Submit result: ZeLjHQ.8mCLM4pLf0PiHvna8E3M- has been confirmed
    Track | CTDB Status
      1   | (47/48) Accurately ripped
      2   | (47/48) Accurately ripped
      3   | (47/48) Accurately ripped
      4   | (48/48) Accurately ripped
      5   | (47/48) Accurately ripped
      6   | (48/48) Accurately ripped
      7   | (47/48) Accurately ripped
      8   | (48/48) Accurately ripped
      9   | (48/48) Accurately ripped
    10   | (47/48) Accurately ripped
    11   | (47/48) Accurately ripped
    12   | (48/48) Accurately ripped
    13   | (48/48) Accurately ripped
    14   | (48/48) Accurately ripped
    15   | (47/48) Accurately ripped
    16   | (45/48) Accurately ripped
    我只说三句话,包括刚才那句,我的话完了。
  • TA的每日心情

    2019-11-19 07:49
  • 签到天数: 130 天

    [LV.7]常住居民III

    61

    主题

    3

    精华

    625

    威望

    版主

    超级网管

    最佳基友奖2货中的战斗机社区建设奖

     楼主| 发表于 2018-10-14 15:52 | 显示全部楼层
    REM GENRE "Country pop"
    REM DATE 1999
    REM DISCID E40E2610
    REM COMMENT "ExactAudioCopy v1.1"
    PERFORMER "Shania Twain"
    TITLE "Come On Over"
    FILE "Shania Twain - Come On Over.wav" WAVE
      TRACK 01 AUDIO
        TITLE "You’re Still the One"
        PERFORMER "Shania Twain"
        INDEX 01 00:00:00
      TRACK 02 AUDIO
        TITLE "When"
        PERFORMER "Shania Twain"
        INDEX 01 03:31:67
      TRACK 03 AUDIO
        TITLE "From This Moment On"
        PERFORMER "Shania Twain"
        INDEX 01 07:10:00
      TRACK 04 AUDIO
        TITLE "Black Eyes, Blue Tears"
        PERFORMER "Shania Twain"
        INDEX 01 12:01:35
      TRACK 05 AUDIO
        TITLE "I Won’t Leave You Lonely"
        PERFORMER "Shania Twain"
        INDEX 01 15:38:27
      TRACK 06 AUDIO
        TITLE "I’m Holdin’ on to Love (to Save My Life)"
        PERFORMER "Shania Twain"
        INDEX 01 19:44:45
      TRACK 07 AUDIO
        TITLE "Come On Over"
        PERFORMER "Shania Twain"
        INDEX 01 23:10:65
      TRACK 08 AUDIO
        TITLE "You’ve Got a Way (Notting Hill remix)"
        PERFORMER "Shania Twain"
        INDEX 01 26:04:25
      TRACK 09 AUDIO
        TITLE "Whatever You Do! Don’t!"
        PERFORMER "Shania Twain"
        INDEX 01 29:23:52
      TRACK 10 AUDIO
        TITLE "Man! I Feel Like a Woman!"
        PERFORMER "Shania Twain"
        INDEX 00 33:11:71
        INDEX 01 33:11:72
      TRACK 11 AUDIO
        TITLE "Love Gets Me Every Time"
        PERFORMER "Shania Twain"
        INDEX 01 37:05:00
      TRACK 12 AUDIO
        TITLE "Don’t Be Stupid (You Know I Love You)"
        PERFORMER "Shania Twain"
        INDEX 01 40:37:57
      TRACK 13 AUDIO
        TITLE "That Don’t Impress Me Much (UK dance mix)"
        PERFORMER "Shania Twain"
        INDEX 01 44:11:32
      TRACK 14 AUDIO
        TITLE "Honey, I’m Home"
        PERFORMER "Shania Twain"
        INDEX 01 48:10:07
      TRACK 15 AUDIO
        TITLE "If You Wanna Touch Her, Ask!"
        PERFORMER "Shania Twain"
        INDEX 01 51:43:32
      TRACK 16 AUDIO
        TITLE "Rock This Country!"
        PERFORMER "Shania Twain"
        INDEX 01 55:56:70
    我只说三句话,包括刚才那句,我的话完了。
  • TA的每日心情
    奋斗
    2018-9-24 22:42
  • 签到天数: 1 天

    [LV.1]初来乍到

    0

    主题

    0

    精华

    0

    威望

    新手上路

    Rank: 1

    发表于 2018-10-20 20:10 | 显示全部楼层
    谢谢版主的好碟,收下了!
  • TA的每日心情
    开心
    2018-7-22 09:08
  • 签到天数: 1 天

    [LV.1]初来乍到

    0

    主题

    0

    精华

    0

    威望

    新手上路

    Rank: 1

    发表于 2019-10-26 11:47 | 显示全部楼层
    不错的一张专辑!谢谢分享!
    您需要登录后才可以回帖 登录 | 立即注册

    本版积分规则

    QQ|Archiver|手机版|小黑屋|简单论坛

    GMT+8, 2019-12-16 03:27 , Processed in 0.164406 second(s), 28 queries .

    Powered by Discuz! X3.4

    © 2001-2013 Comsenz Inc.