找回密码
 立即注册

QQ登录

只需一步,快速开始

搜索
查看: 632|回复: 2

[WAV][酒井法子-Asian Tour Special(台湾歌林唱片)liujian121原创]

[复制链接]
  • TA的每日心情

    2019-11-19 07:49
  • 签到天数: 130 天

    [LV.7]常住居民III

    61

    主题

    3

    精华

    625

    威望

    版主

    超级网管

    最佳基友奖2货中的战斗机社区建设奖

    发表于 2017-9-19 14:52 | 显示全部楼层 |阅读模式






    非常喜欢的一张专辑,收录了中文版的微笑和梦冒险,还有那首大热歌曲碧绿色的兔子,可能很多朋友听酒井法子的歌都是从中文的微笑和梦冒险开始的。

    专辑曲目:
    01. 早安的空氣(おはようの風景)<中文版> [0:04:41.32]
    02. あなたに天使が見える時 [0:05:02.38]
    03. 微笑(微笑みの風景)<中文版> [0:04:32.47]
    04. 夢冒険(夢冒険)<中文版> [0:03:10.45]
    05. 鏡のドレス [0:03:59.35]
    06. 横顔 [0:04:52.45]
    07. Better Half [0:04:37.48]
    08. あなたが満ちてゆく [0:04:42.40]
    09. 涙色 [0:04:28.30]
    10. 碧いうさぎ [0:03:46.60]

    游客,如果您要查看本帖隐藏内容请回复




    本专辑为CD抓轨,仅供个人试听,请自觉于下载后24小时内删除,任何人不得用于商业用途!如果喜欢本专辑,请购买正版,谢谢合作!

    本帖子中包含更多资源

    您需要 登录 才可以下载或查看,没有帐号?立即注册

    x
    我只说三句话,包括刚才那句,我的话完了。
  • TA的每日心情

    2019-11-19 07:49
  • 签到天数: 130 天

    [LV.7]常住居民III

    61

    主题

    3

    精华

    625

    威望

    版主

    超级网管

    最佳基友奖2货中的战斗机社区建设奖

     楼主| 发表于 2017-9-19 14:52 | 显示全部楼层
    Exact Audio Copy V1.1 from 23. June 2015

    EAC 抓取日志文件从17. 九月 2017, 15:08

    Noriko Sakai / Asian Tour Special

    使用驱动器  :TSSTcorpDVD+-RW TS-L633J   Adapter: 1  ID: 0

    读取模式      : 可靠Secure
    使用精确流     : 是
    清空音频缓存    : 是
    使用 C2 指示器 : 否

    读取偏移校正:               : 6
    读取 Lead-In 和 Lead-Out : 否
    用静音填充抓取中丢失偏移的采样       : 是
    去除首尾静音块               : 否
    在CRC 计算中使用了空样本       : 是
    已用接口                  : Win NT 及 2000 本地 Win32 接口

    所用输出模式: : 内部 WAV 函数
    样本格式    : 44.100 Hz; 16 Bit; 立体声


    已抓取 CD 的 TOC

         音轨 |    起始    |    长度    |  起始扇区  |  结束扇区  
        --------------------------------------------
          1 |  0:00.00 |  4:39.37 |      0 |  20961
          2 |  4:39.37 |  5:02.18 |  20962 |  43629
          3 |  9:41.55 |  4:30.57 |  43630 |  63936
          4 | 14:12.37 |  3:09.50 |  63937 |  78161
          5 | 17:22.12 |  3:58.20 |  78162 |  96031
          6 | 21:20.32 |  4:51.30 |  96032 | 117886
          7 | 26:11.62 |  4:36.50 | 117887 | 138636
          8 | 30:48.37 |  4:41.48 | 138637 | 159759
          9 | 35:30.10 |  4:26.25 | 159760 | 179734
         10 | 39:56.35 |  3:44.42 | 179735 | 196576


    范围状态及错误

    已选择范围

         文件名 C:\Users\Administrator\Desktop\酒井法子-Asian Tour Special(台湾歌林唱片)liujian121原创\Noriko Sakai - Asian Tour Special.wav

         峰值电平 100.0 %
         抓取速度 4.0 X
         范围质量 100.0 %
         复制 CRC 4ED20C6A
         复制成功

    没有错误发生


    AccurateRip 摘要

    音轨  1  精确地校准抓取  1)  [1DA2730E]  (AR v2)
    音轨  2  精确地校准抓取  1)  [7156E303]  (AR v2)
    音轨  3  精确地校准抓取  1)  [76734F45]  (AR v2)
    音轨  4  精确地校准抓取  1)  [88F0EA4E]  (AR v2)
    音轨  5  精确地校准抓取  1)  [FE525409]  (AR v2)
    音轨  6  精确地校准抓取  1)  [541B1CFC]  (AR v2)
    音轨  7  精确地校准抓取  1)  [645AC5C5]  (AR v2)
    音轨  8  精确地校准抓取  1)  [07C09A5E]  (AR v2)
    音轨  9  精确地校准抓取  1)  [0BD27B46]  (AR v2)
    音轨 10  精确地校准抓取  1)  [0B2A119B]  (AR v2)

    所有音轨精确校准抓取

    状态报告结尾

    ---- CUETools DB Plugin V2.1.6

    [CTDB TOCID: CJUOwYmwyeMM4Hzi_y8.Wew57m8-] found
    Submit result: CJUOwYmwyeMM4Hzi_y8.Wew57m8- has been confirmed
    Track | CTDB Status
      1   | (3/3) Accurately ripped
      2   | (3/3) Accurately ripped
      3   | (3/3) Accurately ripped
      4   | (3/3) Accurately ripped
      5   | (3/3) Accurately ripped
      6   | (3/3) Accurately ripped
      7   | (3/3) Accurately ripped
      8   | (3/3) Accurately ripped
      9   | (3/3) Accurately ripped
    10   | (3/3) Accurately ripped

    我只说三句话,包括刚才那句,我的话完了。
  • TA的每日心情

    2019-11-19 07:49
  • 签到天数: 130 天

    [LV.7]常住居民III

    61

    主题

    3

    精华

    625

    威望

    版主

    超级网管

    最佳基友奖2货中的战斗机社区建设奖

     楼主| 发表于 2017-9-19 14:52 | 显示全部楼层
    REM GENRE Pop
    REM DATE 1998
    REM DISCID 800A3D0A
    REM COMMENT "ExactAudioCopy v1.1"
    PERFORMER "Noriko Sakai"
    TITLE "Asian Tour Special"
    FILE "Noriko Sakai - Asian Tour Special.wav" WAVE
      TRACK 01 AUDIO
        TITLE "早安的空氣(おはようの風景)-中文版"
        PERFORMER "Noriko Sakai"
        INDEX 01 00:00:00
      TRACK 02 AUDIO
        TITLE "あなたに天使が見える時"
        PERFORMER "Noriko Sakai"
        INDEX 00 04:36:70
        INDEX 01 04:39:37
      TRACK 03 AUDIO
        TITLE "微笑(微笑みの風景)-中文版"
        PERFORMER "Noriko Sakai"
        INDEX 00 09:39:12
        INDEX 01 09:41:55
      TRACK 04 AUDIO
        TITLE "夢冒険(夢冒険)-中文版"
        PERFORMER "Noriko Sakai"
        INDEX 00 14:09:70
        INDEX 01 14:12:37
      TRACK 05 AUDIO
        TITLE "鏡のドレス"
        PERFORMER "Noriko Sakai"
        INDEX 00 17:19:45
        INDEX 01 17:22:12
      TRACK 06 AUDIO
        TITLE "横顔"
        PERFORMER "Noriko Sakai"
        INDEX 00 21:17:65
        INDEX 01 21:20:32
      TRACK 07 AUDIO
        TITLE "Better Half"
        PERFORMER "Noriko Sakai"
        INDEX 00 26:09:20
        INDEX 01 26:11:62
      TRACK 08 AUDIO
        TITLE "あなたが満ちてゆく"
        PERFORMER "Noriko Sakai"
        INDEX 00 30:45:70
        INDEX 01 30:48:37
      TRACK 09 AUDIO
        TITLE "涙色"
        PERFORMER "Noriko Sakai"
        INDEX 00 35:27:42
        INDEX 01 35:30:10
      TRACK 10 AUDIO
        TITLE "碧いうさぎ"
        PERFORMER "Noriko Sakai"
        INDEX 00 39:53:67
        INDEX 01 39:56:35
    我只说三句话,包括刚才那句,我的话完了。
    您需要登录后才可以回帖 登录 | 立即注册

    本版积分规则

    QQ|Archiver|手机版|小黑屋|简单论坛

    GMT+8, 2019-12-16 02:02 , Processed in 0.139306 second(s), 25 queries .

    Powered by Discuz! X3.4

    © 2001-2013 Comsenz Inc.