找回密码
 立即注册

扫一扫,访问微社区

QQ登录

只需一步,快速开始

搜索
查看: 483|回复: 9

[WAV][张学友-我与你(香港宝丽金两个版本)liujian121原创][百度]

[复制链接]
  • TA的每日心情

    2019-8-16 08:26
  • 签到天数: 125 天

    [LV.7]常住居民III

    60

    主题

    3

    精华

    625

    威望

    版主

    超级网管

    最佳基友奖2货中的战斗机社区建设奖

    发表于 2017-7-20 15:11 | 显示全部楼层 |阅读模式
    本帖最后由 liujian121 于 2017-9-19 14:54 编辑












    歌神这张论坛常见的是01首版,偶然买到一张03版本,和01一样无IFPI,应该是热卖之后的加货版本,属于第二批次吧,封面歌词封底碟片设计完全相同,只有是内圈01还是03的区别。
    两个版本分成两个文件夹,压缩在一个压缩包里,打包下载,下载后自行解压即可。
    包内三证俱全,600DPI扫描图。

    游客,如果您要查看本帖隐藏内容请回复




    本专辑为CD抓轨,仅供个人试听,请自觉于下载后24小时内删除,任何人不得用于商业用途!如果喜欢本专辑,请购买正版,谢谢合作!


    本帖子中包含更多资源

    您需要 登录 才可以下载或查看,没有帐号?立即注册

    x
    我只说三句话,包括刚才那句,我的话完了。
  • TA的每日心情

    2019-8-16 08:26
  • 签到天数: 125 天

    [LV.7]常住居民III

    60

    主题

    3

    精华

    625

    威望

    版主

    超级网管

    最佳基友奖2货中的战斗机社区建设奖

     楼主| 发表于 2017-7-20 15:11 | 显示全部楼层
    01首版LOG:

    Exact Audio Copy V1.1 from 23. June 2015

    EAC 抓取日志文件从4. 七月 2017, 19:40

    張學友 / 我與你

    使用驱动器  :TSSTcorpDVD+-RW TS-L633J   Adapter: 1  ID: 0

    读取模式      : 可靠Secure
    使用精确流     : 是
    清空音频缓存    : 是
    使用 C2 指示器 : 否

    读取偏移校正:               : 6
    读取 Lead-In 和 Lead-Out : 否
    用静音填充抓取中丢失偏移的采样       : 是
    去除首尾静音块               : 否
    在CRC 计算中使用了空样本       : 是
    已用接口                  : Win NT 及 2000 本地 Win32 接口

    所用输出模式: : 内部 WAV 函数
    样本格式    : 44.100 Hz; 16 Bit; 立体声


    已抓取 CD 的 TOC

         音轨 |    起始    |    长度    |  起始扇区  |  结束扇区  
        --------------------------------------------
          1 |  0:00.33 |  6:01.50 |     33 |  27157
          2 |  6:02.08 |  5:13.20 |  27158 |  50652
          3 | 11:15.28 |  4:25.45 |  50653 |  70572
          4 | 15:40.73 |  4:22.50 |  70573 |  90272
          5 | 20:03.48 |  4:31.07 |  90273 | 110604
          6 | 24:34.55 |  5:00.03 | 110605 | 133107
          7 | 29:34.58 |  4:52.52 | 133108 | 155059
          8 | 34:27.35 |  3:48.35 | 155060 | 172194
          9 | 38:15.70 |  3:01.40 | 172195 | 185809
         10 | 41:17.35 |  4:40.10 | 185810 | 206819
         11 | 45:57.45 |  1:07.13 | 206820 | 211857


    范围状态及错误

    已选择范围

         文件名 C:\Users\Administrator\Desktop\张学友-我与你(香港宝丽金01首版)liujian121原创\張學友 - 我與你.wav

         峰值电平 100.0 %
         抓取速度 4.1 X
         范围质量 100.0 %
         复制 CRC 2FB62743
         复制成功

    没有错误发生


    AccurateRip 摘要

    音轨  1  精确地校准抓取  46)  [D03B9275]  (AR v2)
    音轨  2  精确地校准抓取  48)  [A510C56C]  (AR v2)
    音轨  3  精确地校准抓取  48)  [87FBC568]  (AR v2)
    音轨  4  精确地校准抓取  47)  [D97E7CE7]  (AR v2)
    音轨  5  精确地校准抓取  47)  [61CC7D50]  (AR v2)
    音轨  6  精确地校准抓取  48)  [6D4CE4AF]  (AR v2)
    音轨  7  精确地校准抓取  47)  [639AFC33]  (AR v2)
    音轨  8  精确地校准抓取  45)  [DFFDD361]  (AR v2)
    音轨  9  精确地校准抓取  47)  [D046E52F]  (AR v2)
    音轨 10  精确地校准抓取  47)  [CE63AE1C]  (AR v2)
    音轨 11  精确地校准抓取  46)  [5187F122]  (AR v2)

    所有音轨精确校准抓取

    状态报告结尾

    ---- CUETools DB Plugin V2.1.6

    [CTDB TOCID: 5nc5TLqHd3l__OUhWue0_.pH7Kk-] found
    Submit result: 5nc5TLqHd3l__OUhWue0_.pH7Kk- has been confirmed
    Track | CTDB Status
      1   | (87/89) Accurately ripped
      2   | (89/89) Accurately ripped
      3   | (89/89) Accurately ripped
      4   | (89/89) Accurately ripped
      5   | (89/89) Accurately ripped
      6   | (89/89) Accurately ripped
      7   | (88/89) Accurately ripped
      8   | (89/89) Accurately ripped
      9   | (89/89) Accurately ripped
    10   | (87/89) Accurately ripped
    11   | (89/89) Accurately ripped
    我只说三句话,包括刚才那句,我的话完了。
  • TA的每日心情

    2019-8-16 08:26
  • 签到天数: 125 天

    [LV.7]常住居民III

    60

    主题

    3

    精华

    625

    威望

    版主

    超级网管

    最佳基友奖2货中的战斗机社区建设奖

     楼主| 发表于 2017-7-20 15:11 | 显示全部楼层
    03版LOG:

    Exact Audio Copy V1.1 from 23. June 2015

    EAC 抓取日志文件从14. 七月 2017, 15:48

    張學友 / 我與你

    使用驱动器  :TSSTcorpDVD+-RW TS-L633J   Adapter: 1  ID: 0

    读取模式      : 可靠Secure
    使用精确流     : 是
    清空音频缓存    : 是
    使用 C2 指示器 : 否

    读取偏移校正:               : 6
    读取 Lead-In 和 Lead-Out : 否
    用静音填充抓取中丢失偏移的采样       : 是
    去除首尾静音块               : 否
    在CRC 计算中使用了空样本       : 是
    已用接口                  : Win NT 及 2000 本地 Win32 接口

    所用输出模式: : 内部 WAV 函数
    样本格式    : 44.100 Hz; 16 Bit; 立体声


    已抓取 CD 的 TOC

         音轨 |    起始    |    长度    |  起始扇区  |  结束扇区  
        --------------------------------------------
          1 |  0:00.32 |  6:01.50 |     32 |  27156
          2 |  6:02.07 |  5:13.20 |  27157 |  50651
          3 | 11:15.27 |  4:25.45 |  50652 |  70571
          4 | 15:40.72 |  4:22.50 |  70572 |  90271
          5 | 20:03.47 |  4:31.08 |  90272 | 110604
          6 | 24:34.55 |  5:00.02 | 110605 | 133106
          7 | 29:34.57 |  4:52.53 | 133107 | 155059
          8 | 34:27.35 |  3:48.35 | 155060 | 172194
          9 | 38:15.70 |  3:01.40 | 172195 | 185809
         10 | 41:17.35 |  4:40.10 | 185810 | 206819
         11 | 45:57.45 |  1:07.12 | 206820 | 211856


    范围状态及错误

    已选择范围

         文件名 C:\Users\Administrator\Desktop\张学友-我与你(香港宝丽金03版)liujian121原创\張學友 - 我與你.wav

         峰值电平 100.0 %
         抓取速度 4.1 X
         范围质量 100.0 %
         复制 CRC D3278E84
         复制成功

    没有错误发生


    AccurateRip 摘要

    音轨  1  精确地校准抓取  12)  [16CD0A70]  (AR v2)
    音轨  2  精确地校准抓取  12)  [2F52D894]  (AR v2)
    音轨  3  精确地校准抓取  12)  [C2C37DE5]  (AR v2)
    音轨  4  精确地校准抓取  12)  [0CF8798A]  (AR v2)
    音轨  5  精确地校准抓取  12)  [BFF484B3]  (AR v2)
    音轨  6  精确地校准抓取  11)  [AA1AECDB]  (AR v2)
    音轨  7  精确地校准抓取  12)  [D70351FD]  (AR v2)
    音轨  8  精确地校准抓取  11)  [4EDE693B]  (AR v2)
    音轨  9  精确地校准抓取  10)  [89D03CC9]  (AR v2)
    音轨 10  精确地校准抓取  11)  [00D564BE]  (AR v2)
    音轨 11  精确地校准抓取  11)  [8FDDBA9F]  (AR v2)

    所有音轨精确校准抓取

    状态报告结尾

    ---- CUETools DB Plugin V2.1.6

    [CTDB TOCID: bAfdKKnHFty4vWUgZRBIGyYWpWI-] found
    Submit result: bAfdKKnHFty4vWUgZRBIGyYWpWI- has been confirmed
    Track | CTDB Status
      1   | (14/14) Accurately ripped
      2   | (14/14) Accurately ripped
      3   | (14/14) Accurately ripped
      4   | (14/14) Accurately ripped
      5   | (14/14) Accurately ripped
      6   | (14/14) Accurately ripped
      7   | (14/14) Accurately ripped
      8   | (14/14) Accurately ripped
      9   | (14/14) Accurately ripped
    10   | (14/14) Accurately ripped
    11   | (14/14) Accurately ripped
    我只说三句话,包括刚才那句,我的话完了。
  • TA的每日心情

    2019-8-16 08:26
  • 签到天数: 125 天

    [LV.7]常住居民III

    60

    主题

    3

    精华

    625

    威望

    版主

    超级网管

    最佳基友奖2货中的战斗机社区建设奖

     楼主| 发表于 2017-7-20 15:12 | 显示全部楼层
    01首版CUE:

    REM GENRE Pop
    REM DATE 1993
    REM DISCID B30B080B
    REM COMMENT "ExactAudioCopy v1.1"
    PERFORMER "張學友"
    TITLE "我與你"
    FILE "張學友 - 我與你.wav" WAVE
      TRACK 01 AUDIO
        TITLE "我與你"
        PERFORMER "張學友"
        INDEX 00 00:00:00
        INDEX 01 00:00:33
      TRACK 02 AUDIO
        TITLE "祇想一生跟你走"
        PERFORMER "張學友"
        INDEX 00 05:59:08
        INDEX 01 06:02:08
      TRACK 03 AUDIO
        TITLE "等你回來"
        PERFORMER "張學友"
        INDEX 00 11:12:28
        INDEX 01 11:15:28
      TRACK 04 AUDIO
        TITLE "忘記他"
        PERFORMER "張學友"
        INDEX 00 15:37:73
        INDEX 01 15:40:73
      TRACK 05 AUDIO
        TITLE "舊情綿綿"
        PERFORMER "張學友"
        INDEX 00 20:00:48
        INDEX 01 20:03:48
      TRACK 06 AUDIO
        TITLE "思憶季節"
        PERFORMER "張學友"
        INDEX 00 24:31:55
        INDEX 01 24:34:55
      TRACK 07 AUDIO
        TITLE "人生需要什麽"
        PERFORMER "張學友"
        INDEX 00 29:31:58
        INDEX 01 29:34:58
      TRACK 08 AUDIO
        TITLE "不經不覺"
        PERFORMER "張學友"
        INDEX 00 34:24:35
        INDEX 01 34:27:35
      TRACK 09 AUDIO
        TITLE "如來神掌"
        PERFORMER "張學友"
        INDEX 00 38:12:70
        INDEX 01 38:15:70
      TRACK 10 AUDIO
        TITLE "煙花句"
        PERFORMER "張學友 & 歐丁玉"
        INDEX 00 41:14:35
        INDEX 01 41:17:35
      TRACK 11 AUDIO
        TITLE "留住這時光"
        PERFORMER "張學友"
        INDEX 00 45:54:45
        INDEX 01 45:57:45
    我只说三句话,包括刚才那句,我的话完了。
  • TA的每日心情

    2019-8-16 08:26
  • 签到天数: 125 天

    [LV.7]常住居民III

    60

    主题

    3

    精华

    625

    威望

    版主

    超级网管

    最佳基友奖2货中的战斗机社区建设奖

     楼主| 发表于 2017-7-20 15:12 | 显示全部楼层
    03版CUE:

    REM GENRE Pop
    REM DATE 1993
    REM DISCID B30B080B
    REM COMMENT "ExactAudioCopy v1.1"
    PERFORMER "張學友"
    TITLE "我與你"
    FILE "張學友 - 我與你.wav" WAVE
      TRACK 01 AUDIO
        TITLE "我與你"
        PERFORMER "張學友"
        INDEX 00 00:00:00
        INDEX 01 00:00:32
      TRACK 02 AUDIO
        TITLE "祇想一生跟你走"
        PERFORMER "張學友"
        INDEX 00 05:59:07
        INDEX 01 06:02:07
      TRACK 03 AUDIO
        TITLE "等你回來"
        PERFORMER "張學友"
        INDEX 00 11:12:27
        INDEX 01 11:15:27
      TRACK 04 AUDIO
        TITLE "忘記他"
        PERFORMER "張學友"
        INDEX 00 15:37:72
        INDEX 01 15:40:72
      TRACK 05 AUDIO
        TITLE "舊情綿綿"
        PERFORMER "張學友"
        INDEX 00 20:00:47
        INDEX 01 20:03:47
      TRACK 06 AUDIO
        TITLE "思憶季節"
        PERFORMER "張學友"
        INDEX 00 24:31:55
        INDEX 01 24:34:55
      TRACK 07 AUDIO
        TITLE "人生需要什麽"
        PERFORMER "張學友"
        INDEX 00 29:31:57
        INDEX 01 29:34:57
      TRACK 08 AUDIO
        TITLE "不經不覺"
        PERFORMER "張學友"
        INDEX 00 34:24:35
        INDEX 01 34:27:35
      TRACK 09 AUDIO
        TITLE "如來神掌"
        PERFORMER "張學友"
        INDEX 00 38:12:70
        INDEX 01 38:15:70
      TRACK 10 AUDIO
        TITLE "煙花句"
        PERFORMER "張學友 & 歐丁玉"
        INDEX 00 41:14:35
        INDEX 01 41:17:35
      TRACK 11 AUDIO
        TITLE "留住這時光"
        PERFORMER "張學友"
        INDEX 00 45:54:45
        INDEX 01 45:57:45
    我只说三句话,包括刚才那句,我的话完了。
  • TA的每日心情
    慵懒
    2019-8-21 01:51
  • 签到天数: 1240 天

    [LV.10]以坛为家III

    1021

    主题

    1

    精华

    235

    威望

    勤杂工

    穷、矮、挫……

    QQ
    发表于 2017-7-20 15:20 | 显示全部楼层
    求瑞奇柳包养
  • TA的每日心情
    开心
    2016-12-2 19:44
  • 签到天数: 17 天

    [LV.4]偶尔看看III

    533

    主题

    0

    精华

    116

    威望

    勤杂工

    社区建设奖

    发表于 2017-7-20 16:38 | 显示全部楼层
    谢谢谢柳儿
  • TA的每日心情
    开心
    2018-2-24 11:55
  • 签到天数: 18 天

    [LV.4]偶尔看看III

    15

    主题

    1

    精华

    181

    威望

    超级会员

    Rank: 7Rank: 7Rank: 7

    发表于 2017-7-29 03:07 | 显示全部楼层
    回复

    使用道具 举报

  • TA的每日心情
    奋斗
    2019-8-21 11:18
  • 签到天数: 513 天

    [LV.9]以坛为家II

    92

    主题

    2

    精华

    284

    威望

    版主

    社区建设奖

    发表于 2017-7-29 08:55 | 显示全部楼层
    顶柳叶儿
    回复

    使用道具 举报

  • TA的每日心情
    开心
    2017-1-29 22:15
  • 签到天数: 6 天

    [LV.2]偶尔看看I

    0

    主题

    0

    精华

    0

    威望

    新手上路

    Rank: 1

    发表于 2017-8-20 23:25 | 显示全部楼层
    回复

    使用道具 举报

    您需要登录后才可以回帖 登录 | 立即注册

    本版积分规则

    QQ|Archiver|手机版|小黑屋|简单论坛

    GMT+8, 2019-8-21 18:26 , Processed in 0.111018 second(s), 26 queries .

    Powered by Discuz! X3.4

    © 2001-2013 Comsenz Inc.