找回密码
 立即注册

扫一扫,访问微社区

QQ登录

只需一步,快速开始

搜索
查看: 713|回复: 5

[WAV][郑伊健-22098演唱会(香港BMG唱片)][liujian121原创][百度]

 关闭 [复制链接]
  • TA的每日心情

    2019-8-16 08:26
  • 签到天数: 125 天

    [LV.7]常住居民III

    60

    主题

    3

    精华

    625

    威望

    版主

    超级网管

    最佳基友奖2货中的战斗机社区建设奖

    发表于 2016-11-30 12:13 | 显示全部楼层 |阅读模式
    本帖最后由 liujian121 于 2018-6-13 17:29 编辑






    CD1:
    01 22098
    02 撒哈拉
    03 情路狂奔
    04 吻感
    05 直至消失天与地
    06 不要哭了
    07 从没对我坦白
    08 你狠心来伤我吗
    09 发现
    10 从你眼中
    11 友情岁月
    12 蒸发
    13 你的我
    14 甘心替代你

    CD2:
    01 谁可情深如我 (Concert Version)
    02 动地惊天爱恋过
    03 仍能情深爱上
    04 打开你未来
    05 一个为你甘去蹈火海的人
    06 爱情盛放的季节
    07 同一秒
    08 只会因你唱
    09 我的歌
    10 感激我遇见
    11 一生爱你一个

    已删档


    本帖子中包含更多资源

    您需要 登录 才可以下载或查看,没有帐号?立即注册

    x
    我只说三句话,包括刚才那句,我的话完了。
  • TA的每日心情

    2019-8-16 08:26
  • 签到天数: 125 天

    [LV.7]常住居民III

    60

    主题

    3

    精华

    625

    威望

    版主

    超级网管

    最佳基友奖2货中的战斗机社区建设奖

     楼主| 发表于 2016-11-30 12:13 | 显示全部楼层
    CD1:
    Exact Audio Copy V1.1 from 23. June 2015

    EAC 抓取日志文件从17. 九月 2016, 20:17

    未知艺术家 / 未知标题

    使用驱动器  :TSSTcorpDVD+-RW TS-L633J   Adapter: 1  ID: 0

    读取模式      : 可靠Secure
    使用精确流     : 是
    清空音频缓存    : 是
    使用 C2 指示器 : 否

    读取偏移校正:               : 0
    读取 Lead-In 和 Lead-Out : 否
    用静音填充抓取中丢失偏移的采样       : 是
    去除首尾静音块               : 否
    在CRC 计算中使用了空样本       : 是
    已用接口                  : Win NT 及 2000 本地 Win32 接口

    所用输出模式: : 内部 WAV 函数
    样本格式    : 44.100 Hz; 16 Bit; 立体声


    已抓取 CD 的 TOC

         音轨 |    起始    |    长度    |  起始扇区  |  结束扇区  
        --------------------------------------------
          1 |  0:00.00 |  4:47.32 |      0 |  21556
          2 |  4:47.32 |  3:01.05 |  21557 |  35136
          3 |  7:48.37 |  3:06.00 |  35137 |  49086
          4 | 10:54.37 |  4:04.63 |  49087 |  67449
          5 | 14:59.25 |  4:38.00 |  67450 |  88299
          6 | 19:37.25 |  1:52.40 |  88300 |  96739
          7 | 21:29.65 |  3:25.60 |  96740 | 112174
          8 | 24:55.50 |  4:06.00 | 112175 | 130624
          9 | 29:01.50 |  3:33.00 | 130625 | 146599
         10 | 32:34.50 |  3:50.62 | 146600 | 163911
         11 | 36:25.37 |  4:53.13 | 163912 | 185899
         12 | 41:18.50 |  4:41.05 | 185900 | 206979
         13 | 45:59.55 |  2:53.20 | 206980 | 219974
         14 | 48:53.00 |  3:38.50 | 219975 | 236374


    范围状态及错误

    已选择范围

         文件名 C:\Users\Administrator\Desktop\郑伊健 22098 演唱会\CD1\未知艺术家 - 未知标题.wav

         峰值电平 98.3 %
         抓取速度 3.8 X
         范围质量 99.9 %
         复制 CRC 0A542D44
         复制成功

    没有错误发生

    状态报告结尾

    ---- CUETools DB Plugin V2.1.6

    [CTDB TOCID: uMCqATB0p0eTye.2.B72W50JHEw-] found
    Submit result: uMCqATB0p0eTye.2.B72W50JHEw- has been confirmed
    Track | CTDB Status
      1   | (6/6) Accurately ripped
      2   | (6/6) Accurately ripped
      3   | (5/6) Accurately ripped
      4   | (6/6) Accurately ripped
      5   | (6/6) Accurately ripped
      6   | (6/6) Accurately ripped
      7   | (5/6) Accurately ripped, or (1/6) differs in 9 samples @00:26:14,00:26:40-00:26:41,00:26:54
      8   | (6/6) Accurately ripped
      9   | (6/6) Accurately ripped
    10   | (6/6) Accurately ripped
    11   | (6/6) Accurately ripped
    12   | (6/6) Accurately ripped
    13   | (6/6) Accurately ripped
    14   | (6/6) Accurately ripped

    CD2:
    Exact Audio Copy V1.1 from 23. June 2015

    EAC 抓取日志文件从17. 九月 2016, 20:37

    未知艺术家 / 未知标题

    使用驱动器  :TSSTcorpDVD+-RW TS-L633J   Adapter: 1  ID: 0

    读取模式      : 可靠Secure
    使用精确流     : 是
    清空音频缓存    : 是
    使用 C2 指示器 : 否

    读取偏移校正:               : 0
    读取 Lead-In 和 Lead-Out : 否
    用静音填充抓取中丢失偏移的采样       : 是
    去除首尾静音块               : 否
    在CRC 计算中使用了空样本       : 是
    已用接口                  : Win NT 及 2000 本地 Win32 接口

    所用输出模式: : 内部 WAV 函数
    样本格式    : 44.100 Hz; 16 Bit; 立体声


    已抓取 CD 的 TOC

         音轨 |    起始    |    长度    |  起始扇区  |  结束扇区  
        --------------------------------------------
          1 |  0:00.00 |  2:56.62 |      0 |  13261
          2 |  2:56.62 |  3:42.13 |  13262 |  29924
          3 |  6:39.00 |  4:12.25 |  29925 |  48849
          4 | 10:51.25 |  4:26.47 |  48850 |  68846
          5 | 15:17.72 |  5:44.15 |  68847 |  94661
          6 | 21:02.12 |  3:52.63 |  94662 | 112124
          7 | 24:55.00 |  2:54.12 | 112125 | 125186
          8 | 27:49.12 |  5:21.25 | 125187 | 149286
          9 | 33:10.37 |  4:38.13 | 149287 | 170149
         10 | 37:48.50 |  5:22.62 | 170150 | 194361
         11 | 43:11.37 |  4:42.50 | 194362 | 215561


    范围状态及错误

    已选择范围

         文件名 C:\Users\Administrator\Desktop\郑伊健 22098 演唱会\CD2\未知艺术家 - 未知标题.wav

         峰值电平 98.3 %
         抓取速度 4.1 X
         范围质量 99.9 %
         复制 CRC AE7AE176
         复制成功

    没有错误发生

    状态报告结尾

    ---- CUETools DB Plugin V2.1.6

    [CTDB TOCID: dKmqJ2USGODHYnY7.VkATFe__Ao-] found
    Submit result: dKmqJ2USGODHYnY7.VkATFe__Ao- has been confirmed
    Track | CTDB Status
      1   | (4/4) Accurately ripped
      2   | (4/4) Accurately ripped
      3   | (4/4) Accurately ripped
      4   | (4/4) Accurately ripped
      5   | (4/4) Accurately ripped
      6   | (4/4) Accurately ripped
      7   | (4/4) Accurately ripped
      8   | (4/4) Accurately ripped
      9   | (4/4) Accurately ripped
    10   | (4/4) Accurately ripped
    11   | (4/4) Accurately ripped
    我只说三句话,包括刚才那句,我的话完了。
  • TA的每日心情

    2019-8-16 08:26
  • 签到天数: 125 天

    [LV.7]常住居民III

    60

    主题

    3

    精华

    625

    威望

    版主

    超级网管

    最佳基友奖2货中的战斗机社区建设奖

     楼主| 发表于 2016-11-30 12:14 | 显示全部楼层
    REM DISCID D60C4F0E
    REM COMMENT "ExactAudioCopy v1.1"
    PERFORMER "郑伊健"
    TITLE "郑伊健-22098演唱会"
    FILE "未知艺术家 - 未知标题.wav" WAVE
      TRACK 01 AUDIO
        TITLE "22098"
        PERFORMER "郑伊健"
        INDEX 01 00:00:00
      TRACK 02 AUDIO
        TITLE "撒哈拉"
        PERFORMER "郑伊健"
        INDEX 01 04:47:32
      TRACK 03 AUDIO
        TITLE "情路狂奔"
        PERFORMER "郑伊健"
        INDEX 01 07:48:37
      TRACK 04 AUDIO
        TITLE "吻感"
        PERFORMER "郑伊健"
        INDEX 01 10:54:37
      TRACK 05 AUDIO
        TITLE "直至消失天与地"
        PERFORMER "郑伊健"
        INDEX 01 14:59:25
      TRACK 06 AUDIO
        TITLE "不要哭了"
        PERFORMER "郑伊健"
        INDEX 01 19:37:25
      TRACK 07 AUDIO
        TITLE "从没对我坦白"
        PERFORMER "郑伊健"
        INDEX 01 21:29:65
      TRACK 08 AUDIO
        TITLE "你狠心来伤我吗"
        PERFORMER "郑伊健"
        INDEX 01 24:55:50
      TRACK 09 AUDIO
        TITLE "发现"
        PERFORMER "郑伊健"
        INDEX 01 29:01:50
      TRACK 10 AUDIO
        TITLE "从你眼中"
        PERFORMER "郑伊健"
        INDEX 01 32:34:50
      TRACK 11 AUDIO
        TITLE "友情岁月"
        PERFORMER "郑伊健"
        INDEX 01 36:25:37
      TRACK 12 AUDIO
        TITLE "蒸发"
        PERFORMER "郑伊健"
        INDEX 01 41:18:50
      TRACK 13 AUDIO
        TITLE "你的我"
        PERFORMER "郑伊健"
        INDEX 01 45:59:55
      TRACK 14 AUDIO
        TITLE "甘心替代你"
        PERFORMER "郑伊健"
        INDEX 01 48:53:00


    我只说三句话,包括刚才那句,我的话完了。
  • TA的每日心情

    2019-8-16 08:26
  • 签到天数: 125 天

    [LV.7]常住居民III

    60

    主题

    3

    精华

    625

    威望

    版主

    超级网管

    最佳基友奖2货中的战斗机社区建设奖

     楼主| 发表于 2016-11-30 12:14 | 显示全部楼层
    REM DISCID 9C0B3A0B
    REM COMMENT "ExactAudioCopy v1.1"
    PERFORMER "郑伊健"
    TITLE "郑伊健-22098演唱会"
    FILE "未知艺术家 - 未知标题.wav" WAVE
      TRACK 01 AUDIO
        TITLE "谁可情深如我 (Concert Version)"
        PERFORMER "郑伊健"
        INDEX 01 00:00:00
      TRACK 02 AUDIO
        TITLE "动地惊天爱恋过"
        PERFORMER "郑伊健"
        INDEX 01 02:56:62
      TRACK 03 AUDIO
        TITLE "仍能情深爱上"
        PERFORMER "郑伊健"
        INDEX 01 06:39:00
      TRACK 04 AUDIO
        TITLE "打开你未来"
        PERFORMER "郑伊健"
        INDEX 01 10:51:25
      TRACK 05 AUDIO
        TITLE "一个为你甘去蹈火海的人"
        PERFORMER "郑伊健"
        INDEX 01 15:17:72
      TRACK 06 AUDIO
        TITLE "爱情盛放的季节"
        PERFORMER "郑伊健"
        INDEX 01 21:02:12
      TRACK 07 AUDIO
        TITLE "同一秒"
        PERFORMER "郑伊健"
        INDEX 01 24:55:00
      TRACK 08 AUDIO
        TITLE "只会因你唱"
        PERFORMER "郑伊健"
        INDEX 01 27:49:12
      TRACK 09 AUDIO
        TITLE "我的歌"
        PERFORMER "郑伊健"
        INDEX 01 33:10:37
      TRACK 10 AUDIO
        TITLE "感激我遇见"
        PERFORMER "郑伊健"
        INDEX 01 37:48:50
      TRACK 11 AUDIO
        TITLE "一生爱你一个"
        PERFORMER "郑伊健"
        INDEX 01 43:11:37
    我只说三句话,包括刚才那句,我的话完了。
  • TA的每日心情

    2019-8-16 08:26
  • 签到天数: 125 天

    [LV.7]常住居民III

    60

    主题

    3

    精华

    625

    威望

    版主

    超级网管

    最佳基友奖2货中的战斗机社区建设奖

     楼主| 发表于 2018-3-5 12:47 | 显示全部楼层
    REM GENRE Pop
    REM DATE 1997
    REM DISCID B311CC0D
    REM COMMENT "ExactAudioCopy v1.1"
    PERFORMER "Michael Jackson"
    TITLE "Blood On The Dance Floor"
    FILE "Michael Jackson - Blood On The Dance Floor.wav" WAVE
      TRACK 01 AUDIO
        TITLE "Blood On The Dance Floor"
        PERFORMER "Michael Jackson"
        INDEX 01 00:00:00
      TRACK 02 AUDIO
        TITLE "Morphine"
        PERFORMER "Michael Jackson"
        INDEX 01 04:13:67
      TRACK 03 AUDIO
        TITLE "Superfly Sister"
        PERFORMER "Michael Jackson"
        INDEX 01 10:42:64
      TRACK 04 AUDIO
        TITLE "Ghosts"
        PERFORMER "Michael Jackson"
        INDEX 01 17:11:10
      TRACK 05 AUDIO
        TITLE "Is It Scary"
        PERFORMER "Michael Jackson"
        INDEX 01 22:24:25
      TRACK 06 AUDIO
        TITLE "Scream Louder (Flyte Tyme remix)"
        PERFORMER "Michael Jackson"
        INDEX 01 28:00:07
      TRACK 07 AUDIO
        TITLE "Money (Fire Island radio edit)"
        PERFORMER "Michael Jackson"
        INDEX 01 33:26:70
      TRACK 08 AUDIO
        TITLE "2 Bad (Refugee Camp mix)"
        PERFORMER "Michael Jackson"
        INDEX 01 37:49:27
      TRACK 09 AUDIO
        TITLE "Stranger in Moscow (Tee's In-House Club Mix)"
        PERFORMER "Michael Jackson"
        INDEX 01 41:22:40
      TRACK 10 AUDIO
        TITLE "This Time Around (D.M. radio mix)"
        PERFORMER "Michael Jackson"
        INDEX 01 48:16:50
      TRACK 11 AUDIO
        TITLE "Earth Song (Hani's Club Experience)"
        PERFORMER "Michael Jackson"
        INDEX 01 52:21:45
      TRACK 12 AUDIO
        TITLE "You Are Not Alone (Classic club mix)"
        PERFORMER "Michael Jackson"
        INDEX 01 60:16:70
      TRACK 13 AUDIO
        TITLE "HIStory (Tony Moran's History Lesson)"
        PERFORMER "Michael Jackson"
        INDEX 01 67:54:02
    我只说三句话,包括刚才那句,我的话完了。
  • TA的每日心情

    2019-8-16 08:26
  • 签到天数: 125 天

    [LV.7]常住居民III

    60

    主题

    3

    精华

    625

    威望

    版主

    超级网管

    最佳基友奖2货中的战斗机社区建设奖

     楼主| 发表于 2018-3-5 12:49 | 显示全部楼层
    REM GENRE Pop
    REM DATE 1997
    REM DISCID B311CC0D
    REM COMMENT "ExactAudioCopy v1.1"
    PERFORMER "Michael Jackson"
    TITLE "Blood On The Dance Floor"
    FILE "Michael Jackson - Blood On The Dance Floor.wav" WAVE
      TRACK 01 AUDIO
        TITLE "Blood On The Dance Floor"
        PERFORMER "Michael Jackson"
        INDEX 01 00:00:00
      TRACK 02 AUDIO
        TITLE "Morphine"
        PERFORMER "Michael Jackson"
        INDEX 01 04:13:67
      TRACK 03 AUDIO
        TITLE "Superfly Sister"
        PERFORMER "Michael Jackson"
        INDEX 01 10:42:64
      TRACK 04 AUDIO
        TITLE "Ghosts"
        PERFORMER "Michael Jackson"
        INDEX 01 17:11:10
      TRACK 05 AUDIO
        TITLE "Is It Scary"
        PERFORMER "Michael Jackson"
        INDEX 01 22:24:25
      TRACK 06 AUDIO
        TITLE "Scream Louder (Flyte Tyme remix)"
        PERFORMER "Michael Jackson"
        INDEX 01 28:00:07
      TRACK 07 AUDIO
        TITLE "Money (Fire Island radio edit)"
        PERFORMER "Michael Jackson"
        INDEX 01 33:26:70
      TRACK 08 AUDIO
        TITLE "2 Bad (Refugee Camp mix)"
        PERFORMER "Michael Jackson"
        INDEX 01 37:49:27
      TRACK 09 AUDIO
        TITLE "Stranger in Moscow (Tee's In-House Club Mix)"
        PERFORMER "Michael Jackson"
        INDEX 01 41:22:40
      TRACK 10 AUDIO
        TITLE "This Time Around (D.M. radio mix)"
        PERFORMER "Michael Jackson"
        INDEX 01 48:16:50
      TRACK 11 AUDIO
        TITLE "Earth Song (Hani's Club Experience)"
        PERFORMER "Michael Jackson"
        INDEX 01 52:21:45
      TRACK 12 AUDIO
        TITLE "You Are Not Alone (Classic club mix)"
        PERFORMER "Michael Jackson"
        INDEX 01 60:16:70
      TRACK 13 AUDIO
        TITLE "HIStory (Tony Moran's History Lesson)"
        PERFORMER "Michael Jackson"
        INDEX 01 67:54:02
    我只说三句话,包括刚才那句,我的话完了。
    您需要登录后才可以回帖 登录 | 立即注册

    本版积分规则

    QQ|Archiver|手机版|小黑屋|简单论坛

    GMT+8, 2019-8-21 17:04 , Processed in 0.099009 second(s), 25 queries .

    Powered by Discuz! X3.4

    © 2001-2013 Comsenz Inc.