找回密码
 立即注册

扫一扫,访问微社区

QQ登录

只需一步,快速开始

搜索
查看: 1519|回复: 2

[WAV][张学友-祝福(台湾环球AVS版)liujian121原创][百度]

 关闭 [复制链接]
  • TA的每日心情

    2019-8-16 08:26
  • 签到天数: 125 天

    [LV.7]常住居民III

    60

    主题

    3

    精华

    625

    威望

    版主

    超级网管

    最佳基友奖2货中的战斗机社区建设奖

    发表于 2016-11-24 15:32 | 显示全部楼层 |阅读模式
    本帖最后由 liujian121 于 2018-6-13 17:32 编辑








    曲目:

    01. 祝福
    02. 回头太难
    03. 谁想轻轻偷走我的吻
    04. 最后一封信
    05. 明日约定
    06. 好久
    07. 情到深处
    08. 苦恋
    09. 爱情的赌徒
    10. 对你的爱越深就越来越心痛



    再补一张歌神的祝福。这张祝福是台湾环球AVS版,非坛里常见的台湾宝丽金AVS首版和香港宝丽金版,单看外观和台湾宝丽金AVS首版基本相同,有两处大的区别。一个区别是内圈,台湾AVS首版没有IFPI,而这张虽然也是AVS版,但后面有IFPI L411(见图四)。另一个区别是后面的激光防伪,已经不再是宝丽金的LOG,而是换成了环球的LOG(见图六)。虽然是环球收购宝丽金之后发行,但发行量不多,同样品相比台湾AVS首版还要贵,不过还是比港压引进版便宜多了。论坛里好像没见过,特此补上。
    图一从左至右:香港宝丽金C字版、香港宝丽金E字版、台湾环球AVS版。


    已删档





    本帖子中包含更多资源

    您需要 登录 才可以下载或查看,没有帐号?立即注册

    x
    我只说三句话,包括刚才那句,我的话完了。
  • TA的每日心情

    2019-8-16 08:26
  • 签到天数: 125 天

    [LV.7]常住居民III

    60

    主题

    3

    精华

    625

    威望

    版主

    超级网管

    最佳基友奖2货中的战斗机社区建设奖

     楼主| 发表于 2016-11-24 15:33 | 显示全部楼层
    Exact Audio Copy V1.1 from 23. June 2015

    EAC 抓取日志文件从30. 九月 2016, 17:28

    张学友 / 祝福

    使用驱动器  :TSSTcorpDVD+-RW TS-L633J   Adapter: 1  ID: 0

    读取模式      : 可靠Secure
    使用精确流     : 是
    清空音频缓存    : 是
    使用 C2 指示器 : 否

    读取偏移校正:               : 6
    读取 Lead-In 和 Lead-Out : 否
    用静音填充抓取中丢失偏移的采样       : 是
    去除首尾静音块               : 否
    在CRC 计算中使用了空样本       : 是
    已用接口                  : Win NT 及 2000 本地 Win32 接口

    所用输出模式: : 内部 WAV 函数
    样本格式    : 44.100 Hz; 16 Bit; 立体声


    已抓取 CD 的 TOC

         音轨 |    起始    |    长度    |  起始扇区  |  结束扇区  
        --------------------------------------------
          1 |  0:00.00 |  4:36.55 |      0 |  20754
          2 |  4:36.55 |  5:15.60 |  20755 |  44439
          3 |  9:52.40 |  5:05.00 |  44440 |  67314
          4 | 14:57.40 |  4:35.52 |  67315 |  87991
          5 | 19:33.17 |  3:17.25 |  87992 | 102791
          6 | 22:50.42 |  4:59.63 | 102792 | 125279
          7 | 27:50.30 |  5:11.15 | 125280 | 148619
          8 | 33:01.45 |  4:13.35 | 148620 | 167629
          9 | 37:15.05 |  3:34.32 | 167630 | 183711
         10 | 40:49.37 |  4:38.13 | 183712 | 204574


    范围状态及错误

    已选择范围

         文件名 C:\Users\Administrator\Desktop\张学友-祝福(台湾环球AVS版)liujian121原创\张学友 - 祝福.wav

         峰值电平 97.7 %
         抓取速度 4.0 X
         范围质量 100.0 %
         复制 CRC A9334ECB
         复制成功

    没有错误发生


    AccurateRip 摘要

    音轨  1  不能准确地校验 (确认 4)  [A5C2DEDF], 返回 AccurateRip [6AAB778D]  (AR v2)
    音轨  2  不能准确地校验 (确认 4)  [9D964B66], 返回 AccurateRip [553B66F1]  (AR v2)
    音轨  3  不能准确地校验 (确认 4)  [EB85D1C3], 返回 AccurateRip [C9A66FCC]  (AR v2)
    音轨  4  不能准确地校验 (确认 4)  [8B19E009], 返回 AccurateRip [2F373DA6]  (AR v2)
    音轨  5  不能准确地校验 (确认 4)  [9812DFB0], 返回 AccurateRip [680DC182]  (AR v2)
    音轨  6  不能准确地校验 (确认 4)  [6EAD831A], 返回 AccurateRip [2CE64948]  (AR v2)
    音轨  7  不能准确地校验 (确认 3)  [05B9F3E4], 返回 AccurateRip [70E5110A]  (AR v2)
    音轨  8  不能准确地校验 (确认 3)  [3F7E6239], 返回 AccurateRip [A076950E]  (AR v2)
    音轨  9  不能准确地校验 (确认 3)  [1421287A], 返回 AccurateRip [2E72CA1B]  (AR v2)
    音轨 10  不能准确地校验 (确认 3)  [CCA73A07], 返回 AccurateRip [5C36A449]  (AR v2)

    没有音轨被准确核实
    你的版本可能与数据库的版本不同

    状态报告结尾

    ---- CUETools DB Plugin V2.1.6

    [CTDB TOCID: svO8PLYQiCVdb9LPlWULZ.bnmSw-] found
    Submit result: svO8PLYQiCVdb9LPlWULZ.bnmSw- has been confirmed
    Track | CTDB Status
      1   | (22/22) Accurately ripped
      2   | (22/22) Accurately ripped
      3   | (22/22) Accurately ripped
      4   | (22/22) Accurately ripped
      5   | (22/22) Accurately ripped
      6   | (22/22) Accurately ripped
      7   | (22/22) Accurately ripped
      8   | (22/22) Accurately ripped
      9   | (22/22) Accurately ripped
    10   | (21/22) Accurately ripped
    我只说三句话,包括刚才那句,我的话完了。
  • TA的每日心情

    2019-8-16 08:26
  • 签到天数: 125 天

    [LV.7]常住居民III

    60

    主题

    3

    精华

    625

    威望

    版主

    超级网管

    最佳基友奖2货中的战斗机社区建设奖

     楼主| 发表于 2016-11-24 15:35 | 显示全部楼层
    REM DISCID 990AA70A
    REM COMMENT "ExactAudioCopy v1.1"
    PERFORMER "张学友"
    TITLE "祝福"
    FILE "张学友 - 祝福.wav" WAVE
      TRACK 01 AUDIO
        TITLE "祝福"
        PERFORMER "张学友"
        INDEX 01 00:00:00
      TRACK 02 AUDIO
        TITLE "回头太难"
        PERFORMER "张学友"
        INDEX 00 04:33:55
        INDEX 01 04:36:55
      TRACK 03 AUDIO
        TITLE "谁想轻轻偷走我的吻"
        PERFORMER "张学友"
        INDEX 00 09:49:40
        INDEX 01 09:52:40
      TRACK 04 AUDIO
        TITLE "最后一封信"
        PERFORMER "张学友"
        INDEX 00 14:54:40
        INDEX 01 14:57:40
      TRACK 05 AUDIO
        TITLE "明日约定"
        PERFORMER "张学友"
        INDEX 00 19:30:17
        INDEX 01 19:33:17
      TRACK 06 AUDIO
        TITLE "好久"
        PERFORMER "张学友"
        INDEX 00 22:47:50
        INDEX 01 22:50:42
      TRACK 07 AUDIO
        TITLE "情到深处"
        PERFORMER "张学友"
        INDEX 00 27:47:30
        INDEX 01 27:50:30
      TRACK 08 AUDIO
        TITLE "苦恋"
        PERFORMER "张学友"
        INDEX 00 32:58:45
        INDEX 01 33:01:45
      TRACK 09 AUDIO
        TITLE "爱情的赌徒"
        PERFORMER "张学友"
        INDEX 00 37:12:05
        INDEX 01 37:15:05
      TRACK 10 AUDIO
        TITLE "对你的爱越深就越来越心痛"
        PERFORMER "张学友"
        INDEX 00 40:46:37
        INDEX 01 40:49:37
    我只说三句话,包括刚才那句,我的话完了。
    您需要登录后才可以回帖 登录 | 立即注册

    本版积分规则

    QQ|Archiver|手机版|小黑屋|简单论坛

    GMT+8, 2019-8-21 18:04 , Processed in 0.101865 second(s), 25 queries .

    Powered by Discuz! X3.4

    © 2001-2013 Comsenz Inc.