找回密码
 立即注册

扫一扫,访问微社区

QQ登录

只需一步,快速开始

搜索
查看: 782|回复: 4

[WAV][张学友-吻别(香港宝丽金有IFPI版)liujian121原创][百度]

 关闭 [复制链接]
  • TA的每日心情

    2019-8-16 08:26
  • 签到天数: 125 天

    [LV.7]常住居民III

    60

    主题

    3

    精华

    625

    威望

    版主

    超级网管

    最佳基友奖2货中的战斗机社区建设奖

    发表于 2016-11-24 13:13 | 显示全部楼层 |阅读模式
    本帖最后由 liujian121 于 2018-6-13 17:30 编辑







    曲目:
    01 吻别
    02 情网
    03 LINDA
    04 一路上有你
    05 你给我的爱最多
    06 每天爱你多一些
    07 相信她,关心她
    08 恋爱的人都一样
    09 拥抱阳光
    10 秋意浓

    网上分享的吻别,大多是香港宝丽金A字首版、台湾宝丽金AVS首版。这张也是香港宝丽金的版本,如果不看内圈单从外观来看,无论是封面封底和碟面都与香港A字首版一致,但这张在内圈上有IFPI L026和IFPI 0913,而香港宝丽金A字首版没有IFPI。个人推测这是吻别大卖之后,香港宝丽金加货的版本,母带和生产线应该没什么变化。
    图一从左至右:台湾宝丽金AVS首版、香港宝丽金A字首版、香港宝丽金有IFPI版。
    图五是这张吻别的IFPI,在吻别唱片编码5192082的上面。


    已删档




    本帖子中包含更多资源

    您需要 登录 才可以下载或查看,没有帐号?立即注册

    x
    我只说三句话,包括刚才那句,我的话完了。
  • TA的每日心情

    2019-8-16 08:26
  • 签到天数: 125 天

    [LV.7]常住居民III

    60

    主题

    3

    精华

    625

    威望

    版主

    超级网管

    最佳基友奖2货中的战斗机社区建设奖

     楼主| 发表于 2016-11-24 13:15 | 显示全部楼层
    Exact Audio Copy V1.1 from 23. June 2015

    EAC 抓取日志文件从30. 九月 2016, 16:58

    张学友 / 吻别

    使用驱动器  :TSSTcorpDVD+-RW TS-L633J   Adapter: 1  ID: 0

    读取模式      : 可靠Secure
    使用精确流     : 是
    清空音频缓存    : 是
    使用 C2 指示器 : 否

    读取偏移校正:               : 6
    读取 Lead-In 和 Lead-Out : 否
    用静音填充抓取中丢失偏移的采样       : 是
    去除首尾静音块               : 否
    在CRC 计算中使用了空样本       : 是
    已用接口                  : Win NT 及 2000 本地 Win32 接口

    所用输出模式: : 内部 WAV 函数
    样本格式    : 44.100 Hz; 16 Bit; 立体声


    已抓取 CD 的 TOC

         音轨 |    起始    |    长度    |  起始扇区  |  结束扇区  
        --------------------------------------------
          1 |  0:00.00 |  5:03.38 |      0 |  22762
          2 |  5:03.38 |  4:09.12 |  22763 |  41449
          3 |  9:12.50 |  4:42.13 |  41450 |  62612
          4 | 13:54.63 |  4:47.12 |  62613 |  84149
          5 | 18:42.00 |  5:19.13 |  84150 | 108087
          6 | 24:01.13 |  4:40.50 | 108088 | 129137
          7 | 28:41.63 |  4:35.50 | 129138 | 149812
          8 | 33:17.38 |  4:34.25 | 149813 | 170387
          9 | 37:51.63 |  3:32.25 | 170388 | 186312
         10 | 41:24.13 |  6:40.00 | 186313 | 216312


    范围状态及错误

    已选择范围

         文件名 C:\Users\Administrator\Desktop\张学友-吻别(香港宝丽金有IFPI版)liujian121原创\张学友 - 吻别.wav

         峰值电平 99.4 %
         抓取速度 4.2 X
         范围质量 100.0 %
         复制 CRC B1C111C4
         复制成功

    没有错误发生


    AccurateRip 摘要

    音轨  1  不能准确地校验 (确认 14)  [752A0145], 返回 AccurateRip [05EF5209]  (AR v2)
    音轨  2  不能准确地校验 (确认 14)  [F4F69085], 返回 AccurateRip [77359BB2]  (AR v2)
    音轨  3  不能准确地校验 (确认 14)  [7DD17C23], 返回 AccurateRip [62BA7B7A]  (AR v2)
    音轨  4  不能准确地校验 (确认 14)  [374C6E13], 返回 AccurateRip [0663F0C9]  (AR v2)
    音轨  5  不能准确地校验 (确认 15)  [6D79BE98], 返回 AccurateRip [3B4C74A9]  (AR v2)
    音轨  6  不能准确地校验 (确认 15)  [B53BAE67], 返回 AccurateRip [B5D09723]  (AR v2)
    音轨  7  不能准确地校验 (确认 14)  [CDD4672F], 返回 AccurateRip [D52E8851]  (AR v2)
    音轨  8  不能准确地校验 (确认 15)  [FC460EEA], 返回 AccurateRip [6CFB951E]  (AR v2)
    音轨  9  不能准确地校验 (确认 15)  [D31ACF79], 返回 AccurateRip [493B9988]  (AR v2)
    音轨 10  不能准确地校验 (确认 14)  [C478A474], 返回 AccurateRip [152EBDCA]  (AR v2)

    没有音轨被准确核实
    你的版本可能与数据库的版本不同

    状态报告结尾

    ---- CUETools DB Plugin V2.1.6

    [CTDB TOCID: 5Gs4r5mPXNTemUW0fKI5ORIY3rw-] found
    Submit result: 5Gs4r5mPXNTemUW0fKI5ORIY3rw- has been confirmed
    Track | CTDB Status
      1   | (56/56) Accurately ripped
      2   | (56/56) Accurately ripped
      3   | (56/56) Accurately ripped
      4   | (56/56) Accurately ripped
      5   | (56/56) Accurately ripped
      6   | (56/56) Accurately ripped
      7   | (56/56) Accurately ripped
      8   | (56/56) Accurately ripped
      9   | (56/56) Accurately ripped
    10   | (55/56) Accurately ripped
    我只说三句话,包括刚才那句,我的话完了。
  • TA的每日心情

    2019-8-16 08:26
  • 签到天数: 125 天

    [LV.7]常住居民III

    60

    主题

    3

    精华

    625

    威望

    版主

    超级网管

    最佳基友奖2货中的战斗机社区建设奖

     楼主| 发表于 2016-11-24 13:15 | 显示全部楼层
    REM DISCID 880B440A
    REM COMMENT "ExactAudioCopy v1.1"
    PERFORMER "张学友"
    TITLE "吻别"
    FILE "张学友 - 吻别.wav" WAVE
      TRACK 01 AUDIO
        TITLE "吻别"
        PERFORMER "张学友"
        INDEX 01 00:00:00
      TRACK 02 AUDIO
        TITLE "情网"
        PERFORMER "张学友"
        INDEX 01 05:03:38
      TRACK 03 AUDIO
        TITLE "LINDA"
        PERFORMER "张学友"
        INDEX 01 09:12:50
      TRACK 04 AUDIO
        TITLE "一路上有你"
        PERFORMER "张学友"
        INDEX 01 13:54:63
      TRACK 05 AUDIO
        TITLE "你给我的爱最多"
        PERFORMER "张学友"
        INDEX 01 18:42:00
      TRACK 06 AUDIO
        TITLE "每天爱你多一些"
        PERFORMER "张学友"
        INDEX 01 24:01:13
      TRACK 07 AUDIO
        TITLE "相信她,关心她"
        PERFORMER "张学友"
        INDEX 01 28:41:63
      TRACK 08 AUDIO
        TITLE "恋爱的人都一样"
        PERFORMER "张学友"
        INDEX 01 33:17:38
      TRACK 09 AUDIO
        TITLE "拥抱阳光"
        PERFORMER "张学友"
        INDEX 01 37:51:63
      TRACK 10 AUDIO
        TITLE "秋意浓"
        PERFORMER "张学友"
        INDEX 01 41:24:13

    我只说三句话,包括刚才那句,我的话完了。
  • TA的每日心情
    开心
    2016-12-2 19:44
  • 签到天数: 17 天

    [LV.4]偶尔看看III

    533

    主题

    0

    精华

    116

    威望

    勤杂工

    社区建设奖

    发表于 2016-11-24 14:39 | 显示全部楼层
    德味!毒!
    回复

    使用道具 举报

    该用户从未签到

    0

    主题

    0

    精华

    0

    威望

    新手上路

    Rank: 1

    发表于 2017-9-11 15:09 | 显示全部楼层
    谢谢楼主啦~~~~
    您需要登录后才可以回帖 登录 | 立即注册

    本版积分规则

    QQ|Archiver|手机版|小黑屋|简单论坛

    GMT+8, 2019-8-21 17:55 , Processed in 0.174166 second(s), 25 queries .

    Powered by Discuz! X3.4

    © 2001-2013 Comsenz Inc.