找回密码
 立即注册

扫一扫,访问微社区

QQ登录

只需一步,快速开始

搜索
查看: 421|回复: 5

[WAV][黎明-一夜倾情演唱会(香港宝丽金K1首版2CD)liujian121原创

[复制链接]
  • TA的每日心情

    2019-8-16 08:26
  • 签到天数: 125 天

    [LV.7]常住居民III

    60

    主题

    3

    精华

    625

    威望

    版主

    超级网管

    最佳基友奖2货中的战斗机社区建设奖

    发表于 2018-1-9 00:37 | 显示全部楼层 |阅读模式






    曲目:
    Disc One
    1:梦工场
    2:不羁舞台
    3:但愿不只是朋友
    4:名份的浪漫
    5:永相依
    6:相逢在雨中
    7:对不起 我爱你
    8:我的灰姑娘
    9:明日天涯
    10:明星
    11:梦
    12:午夜梦回
    13:一夜倾情

    Disc Two
    1:夜夜梦中见
    2:人在黎明
    3:恋火
    4:我的感觉
    5:因你在此
    6:我来自北京
    7:如果这是情
    8:情是我所有
    9:今夜你会不会来
    10:我的亲爱


    本专辑为CD抓轨,仅供个人试听,切勿外传,请自觉于下载后24小时内删除,任何人不得用于商业用途!如果喜欢本专辑,请购买正版,谢谢合作!

    包内WAV+CUE+LOG+600DPI高清扫图。

    游客,如果您要查看本帖隐藏内容请回复







    本帖子中包含更多资源

    您需要 登录 才可以下载或查看,没有帐号?立即注册

    x
    我只说三句话,包括刚才那句,我的话完了。
  • TA的每日心情

    2019-8-16 08:26
  • 签到天数: 125 天

    [LV.7]常住居民III

    60

    主题

    3

    精华

    625

    威望

    版主

    超级网管

    最佳基友奖2货中的战斗机社区建设奖

     楼主| 发表于 2018-1-9 00:37 | 显示全部楼层
    Exact Audio Copy V1.1 from 23. June 2015

    EAC 抓取日志文件从8. 一月 2018, 21:11

    黎明 / 一夜傾情演唱會CD1

    使用驱动器  :TSSTcorpDVD+-RW TS-L633J   Adapter: 1  ID: 0

    读取模式      : 可靠Secure
    使用精确流     : 是
    清空音频缓存    : 是
    使用 C2 指示器 : 否

    读取偏移校正:               : 6
    读取 Lead-In 和 Lead-Out : 否
    用静音填充抓取中丢失偏移的采样       : 是
    去除首尾静音块               : 否
    在CRC 计算中使用了空样本       : 是
    已用接口                  : Win NT 及 2000 本地 Win32 接口

    所用输出模式: : 内部 WAV 函数
    样本格式    : 44.100 Hz; 16 Bit; 立体声


    已抓取 CD 的 TOC

         音轨 |    起始    |    长度    |  起始扇区  |  结束扇区  
        --------------------------------------------
          1 |  0:00.00 |  6:05.17 |      0 |  27391
          2 |  6:05.17 |  4:02.28 |  27392 |  45569
          3 | 10:07.45 |  4:15.60 |  45570 |  64754
          4 | 14:23.30 |  5:13.00 |  64755 |  88229
          5 | 19:36.30 |  4:10.22 |  88230 | 107001
          6 | 23:46.52 |  3:44.03 | 107002 | 123804
          7 | 27:30.55 |  4:24.35 | 123805 | 143639
          8 | 31:55.15 |  6:36.67 | 143640 | 173406
          9 | 38:32.07 |  2:32.28 | 173407 | 184834
         10 | 41:04.35 |  3:39.40 | 184835 | 201299
         11 | 44:44.00 |  1:50.57 | 201300 | 209606
         12 | 46:34.57 |  5:41.40 | 209607 | 235221
         13 | 52:16.22 |  4:38.03 | 235222 | 256074


    范围状态及错误

    已选择范围

         文件名 C:\Users\Administrator\Desktop\黎明-一夜倾情演唱会(香港宝丽金K1首版2CD)liujian121原创\黎明 - 一夜傾情演唱會CD1.wav

         峰值电平 100.0 %
         抓取速度 4.3 X
         范围质量 100.0 %
         复制 CRC 8379B81E
         复制成功

    没有错误发生


    AccurateRip 摘要

    音轨  1  精确地校准抓取  4)  [6381FB0F]  (AR v2)
    音轨  2  精确地校准抓取  5)  [9449FDB2]  (AR v2)
    音轨  3  精确地校准抓取  5)  [16AA2399]  (AR v2)
    音轨  4  精确地校准抓取  5)  [A50055E5]  (AR v2)
    音轨  5  精确地校准抓取  5)  [1F1A2779]  (AR v2)
    音轨  6  精确地校准抓取  5)  [555D2C78]  (AR v2)
    音轨  7  精确地校准抓取  5)  [5093F851]  (AR v2)
    音轨  8  精确地校准抓取  5)  [B5EB0C77]  (AR v2)
    音轨  9  精确地校准抓取  4)  [28BDA812]  (AR v2)
    音轨 10  精确地校准抓取  5)  [7C4CB0E6]  (AR v2)
    音轨 11  精确地校准抓取  5)  [9FDFC768]  (AR v2)
    音轨 12  精确地校准抓取  4)  [F2D0E377]  (AR v2)
    音轨 13  精确地校准抓取  4)  [DFC7AE5F]  (AR v2)

    所有音轨精确校准抓取

    状态报告结尾

    ---- CUETools DB Plugin V2.1.6

    [CTDB TOCID: vuhPY2R7eSj_3RlyHKtbypwfMKE-] found
    Submit result: already submitted
    Track | CTDB Status
      1   | (19/19) Accurately ripped
      2   | (19/19) Accurately ripped
      3   | (19/19) Accurately ripped
      4   | (19/19) Accurately ripped
      5   | (19/19) Accurately ripped
      6   | (19/19) Accurately ripped
      7   | (19/19) Accurately ripped
      8   | (19/19) Accurately ripped
      9   | (19/19) Accurately ripped
    10   | (19/19) Accurately ripped
    11   | (19/19) Accurately ripped
    12   | (19/19) Accurately ripped
    13   | (19/19) Accurately ripped

    我只说三句话,包括刚才那句,我的话完了。
  • TA的每日心情

    2019-8-16 08:26
  • 签到天数: 125 天

    [LV.7]常住居民III

    60

    主题

    3

    精华

    625

    威望

    版主

    超级网管

    最佳基友奖2货中的战斗机社区建设奖

     楼主| 发表于 2018-1-9 00:38 | 显示全部楼层
    Exact Audio Copy V1.1 from 23. June 2015

    EAC 抓取日志文件从8. 一月 2018, 21:41

    黎明 / 一夜傾情演唱會CD2

    使用驱动器  :TSSTcorpDVD+-RW TS-L633J   Adapter: 1  ID: 0

    读取模式      : 可靠Secure
    使用精确流     : 是
    清空音频缓存    : 是
    使用 C2 指示器 : 否

    读取偏移校正:               : 6
    读取 Lead-In 和 Lead-Out : 否
    用静音填充抓取中丢失偏移的采样       : 是
    去除首尾静音块               : 否
    在CRC 计算中使用了空样本       : 是
    已用接口                  : Win NT 及 2000 本地 Win32 接口

    所用输出模式: : 内部 WAV 函数
    样本格式    : 44.100 Hz; 16 Bit; 立体声


    已抓取 CD 的 TOC

         音轨 |    起始    |    长度    |  起始扇区  |  结束扇区  
        --------------------------------------------
          1 |  0:00.00 |  7:57.57 |      0 |  35831
          2 |  7:57.57 |  6:29.10 |  35832 |  65016
          3 | 14:26.67 |  4:57.43 |  65017 |  87334
          4 | 19:24.35 |  5:24.32 |  87335 | 111666
          5 | 24:48.67 |  2:09.00 | 111667 | 121341
          6 | 26:57.67 |  7:08.25 | 121342 | 153466
          7 | 34:06.17 |  4:57.00 | 153467 | 175741
          8 | 39:03.17 |  5:28.48 | 175742 | 200389
          9 | 44:31.65 |  4:24.65 | 200390 | 220254
         10 | 48:56.55 |  6:47.20 | 220255 | 250799


    范围状态及错误

    已选择范围

         文件名 C:\Users\Administrator\Desktop\黎明-一夜倾情演唱会(香港宝丽金K1首版2CD)liujian121原创\黎明 - 一夜傾情演唱會CD2.wav

         峰值电平 97.7 %
         抓取速度 4.2 X
         范围质量 100.0 %
         复制 CRC 638ABD30
         复制成功

    没有错误发生


    AccurateRip 摘要

    音轨  1  精确地校准抓取  3)  [AF662CD0]  (AR v2)
    音轨  2  精确地校准抓取  3)  [47CABE8A]  (AR v2)
    音轨  3  精确地校准抓取  3)  [43D4CCE7]  (AR v2)
    音轨  4  精确地校准抓取  3)  [954A6DC8]  (AR v2)
    音轨  5  精确地校准抓取  3)  [4FC9F05B]  (AR v2)
    音轨  6  精确地校准抓取  3)  [1A116B7E]  (AR v2)
    音轨  7  精确地校准抓取  3)  [AD9F1811]  (AR v2)
    音轨  8  精确地校准抓取  3)  [8A137400]  (AR v2)
    音轨  9  精确地校准抓取  3)  [DC50E034]  (AR v2)
    音轨 10  精确地校准抓取  3)  [6460B38B]  (AR v2)

    所有音轨精确校准抓取

    状态报告结尾

    ---- CUETools DB Plugin V2.1.6

    [CTDB TOCID: Zt5s_1KkLeGJiw2B40vVfPtwxk8-] found
    Submit result: already submitted
    Track | CTDB Status
      1   | (17/17) Accurately ripped
      2   | (17/17) Accurately ripped
      3   | (17/17) Accurately ripped
      4   | (17/17) Accurately ripped
      5   | (17/17) Accurately ripped
      6   | (17/17) Accurately ripped
      7   | (17/17) Accurately ripped
      8   | (17/17) Accurately ripped
      9   | (16/17) Accurately ripped
    10   | (17/17) Accurately ripped

    我只说三句话,包括刚才那句,我的话完了。
  • TA的每日心情

    2019-8-16 08:26
  • 签到天数: 125 天

    [LV.7]常住居民III

    60

    主题

    3

    精华

    625

    威望

    版主

    超级网管

    最佳基友奖2货中的战斗机社区建设奖

     楼主| 发表于 2018-1-9 00:38 | 显示全部楼层
    REM GENRE Pop
    REM DATE 1993
    REM DISCID CD0D560D
    REM COMMENT "ExactAudioCopy v1.1"
    PERFORMER "黎明"
    TITLE "一夜傾情演唱會CD1"
    FILE "黎明 - 一夜傾情演唱會CD1.wav" WAVE
      TRACK 01 AUDIO
        TITLE "夢工場"
        PERFORMER "黎明"
        INDEX 01 00:00:00
        INDEX 02 02:03:67
      TRACK 02 AUDIO
        TITLE "不羈舞台"
        PERFORMER "黎明"
        INDEX 00 06:05:15
        INDEX 01 06:05:17
      TRACK 03 AUDIO
        TITLE "但願不只是朋友"
        PERFORMER "黎明"
        INDEX 00 10:07:42
        INDEX 01 10:07:45
      TRACK 04 AUDIO
        TITLE "無名份的浪漫"
        PERFORMER "黎明"
        INDEX 00 14:23:27
        INDEX 01 14:23:30
      TRACK 05 AUDIO
        TITLE "永相依"
        PERFORMER "黎明"
        INDEX 00 19:36:27
        INDEX 01 19:36:30
      TRACK 06 AUDIO
        TITLE "相逢在雨中"
        PERFORMER "黎明"
        INDEX 00 23:46:50
        INDEX 01 23:46:52
      TRACK 07 AUDIO
        TITLE "對不起,我愛你"
        PERFORMER "黎明"
        INDEX 00 27:30:52
        INDEX 01 27:30:55
      TRACK 08 AUDIO
        TITLE "我的灰姑娘"
        PERFORMER "黎明"
        INDEX 00 31:55:12
        INDEX 01 31:55:15
      TRACK 09 AUDIO
        TITLE "明日天涯"
        PERFORMER "黎明"
        INDEX 00 38:32:05
        INDEX 01 38:32:07
      TRACK 10 AUDIO
        TITLE "明星"
        PERFORMER "黎明"
        INDEX 00 41:04:32
        INDEX 01 41:04:35
      TRACK 11 AUDIO
        TITLE "夢"
        PERFORMER "黎明"
        INDEX 00 44:43:72
        INDEX 01 44:44:00
      TRACK 12 AUDIO
        TITLE "午夜夢迴"
        PERFORMER "黎明"
        INDEX 00 46:34:55
        INDEX 01 46:34:57
      TRACK 13 AUDIO
        TITLE "一夜傾情"
        PERFORMER "黎明"
        INDEX 00 52:16:20
        INDEX 01 52:16:22
    我只说三句话,包括刚才那句,我的话完了。
  • TA的每日心情

    2019-8-16 08:26
  • 签到天数: 125 天

    [LV.7]常住居民III

    60

    主题

    3

    精华

    625

    威望

    版主

    超级网管

    最佳基友奖2货中的战斗机社区建设奖

     楼主| 发表于 2018-1-9 00:39 | 显示全部楼层
    REM GENRE Pop
    REM DATE 1993
    REM DISCID 9D0D100A
    REM COMMENT "ExactAudioCopy v1.1"
    PERFORMER "黎明"
    TITLE "一夜傾情演唱會CD2"
    FILE "黎明 - 一夜傾情演唱會CD2.wav" WAVE
      TRACK 01 AUDIO
        TITLE "夜夜夢中見"
        PERFORMER "黎明"
        INDEX 01 00:00:00
      TRACK 02 AUDIO
        TITLE "人在黎明"
        PERFORMER "黎明"
        INDEX 00 07:57:55
        INDEX 01 07:57:57
      TRACK 03 AUDIO
        TITLE "戀火"
        PERFORMER "黎明"
        INDEX 00 14:26:65
        INDEX 01 14:26:67
      TRACK 04 AUDIO
        TITLE "我的感覺"
        PERFORMER "黎明"
        INDEX 00 19:24:32
        INDEX 01 19:24:35
      TRACK 05 AUDIO
        TITLE "因你在此"
        PERFORMER "黎明"
        INDEX 00 24:48:65
        INDEX 01 24:48:67
      TRACK 06 AUDIO
        TITLE "我來自北京"
        PERFORMER "黎明"
        INDEX 00 26:57:65
        INDEX 01 26:57:67
      TRACK 07 AUDIO
        TITLE "如果這是情"
        PERFORMER "黎明"
        INDEX 00 34:06:15
        INDEX 01 34:06:17
      TRACK 08 AUDIO
        TITLE "情是我所有"
        PERFORMER "黎明"
        INDEX 00 39:03:15
        INDEX 01 39:03:17
      TRACK 09 AUDIO
        TITLE "今夜妳會不會來"
        PERFORMER "黎明"
        INDEX 00 44:31:62
        INDEX 01 44:31:65
      TRACK 10 AUDIO
        TITLE "我的親愛"
        PERFORMER "黎明"
        INDEX 00 48:56:52
        INDEX 01 48:56:55
    我只说三句话,包括刚才那句,我的话完了。
  • TA的每日心情
    开心
    2018-12-2 20:20
  • 签到天数: 12 天

    [LV.3]偶尔看看II

    0

    主题

    0

    精华

    0

    威望

    新手上路

    Rank: 1

    发表于 2018-3-17 20:14 | 显示全部楼层
    谢谢谢谢
    回复

    使用道具 举报

    您需要登录后才可以回帖 登录 | 立即注册

    本版积分规则

    QQ|Archiver|手机版|小黑屋|简单论坛

    GMT+8, 2019-8-21 18:16 , Processed in 0.106172 second(s), 25 queries .

    Powered by Discuz! X3.4

    © 2001-2013 Comsenz Inc.