找回密码
 立即注册

扫一扫,访问微社区

QQ登录

只需一步,快速开始

搜索
查看: 605|回复: 6

[WAV][张学友-祝福(香港宝丽金两个版本)liujian121原创][百度]

[复制链接]
  • TA的每日心情

    2019-8-16 08:26
  • 签到天数: 125 天

    [LV.7]常住居民III

    60

    主题

    3

    精华

    625

    威望

    版主

    超级网管

    最佳基友奖2货中的战斗机社区建设奖

    发表于 2017-7-20 15:04 | 显示全部楼层 |阅读模式
    本帖最后由 liujian121 于 2017-9-19 14:54 编辑












    香港宝丽金C字版和E字版,印象中港版这张专辑没有A和B字,所以C字应该是香港首版,E字是第二批,两个版本都没有IFPI。
    压缩包中有两个文件夹,下载后解压即可。
    包内三证俱全,600DPI扫描图。

    游客,如果您要查看本帖隐藏内容请回复




    本专辑为CD抓轨,仅供个人试听,请自觉于下载后24小时内删除,任何人不得用于商业用途!如果喜欢本专辑,请购买正版,谢谢合作!



    本帖子中包含更多资源

    您需要 登录 才可以下载或查看,没有帐号?立即注册

    x
    我只说三句话,包括刚才那句,我的话完了。
  • TA的每日心情

    2019-8-16 08:26
  • 签到天数: 125 天

    [LV.7]常住居民III

    60

    主题

    3

    精华

    625

    威望

    版主

    超级网管

    最佳基友奖2货中的战斗机社区建设奖

     楼主| 发表于 2017-7-20 15:05 | 显示全部楼层
    C字版LOG:

    Exact Audio Copy V1.1 from 23. June 2015

    EAC 抓取日志文件从19. 七月 2017, 18:28

    张学友 / 祝福

    使用驱动器  :TSSTcorpDVD+-RW TS-L633J   Adapter: 1  ID: 0

    读取模式      : 可靠Secure
    使用精确流     : 是
    清空音频缓存    : 是
    使用 C2 指示器 : 否

    读取偏移校正:               : 6
    读取 Lead-In 和 Lead-Out : 否
    用静音填充抓取中丢失偏移的采样       : 是
    去除首尾静音块               : 否
    在CRC 计算中使用了空样本       : 是
    已用接口                  : Win NT 及 2000 本地 Win32 接口

    所用输出模式: : 内部 WAV 函数
    样本格式    : 44.100 Hz; 16 Bit; 立体声


    已抓取 CD 的 TOC

         音轨 |    起始    |    长度    |  起始扇区  |  结束扇区  
        --------------------------------------------
          1 |  0:00.00 |  4:32.00 |      0 |  20399
          2 |  4:32.00 |  5:11.62 |  20400 |  43786
          3 |  9:43.62 |  5:00.25 |  43787 |  66311
          4 | 14:44.12 |  4:33.38 |  66312 |  86824
          5 | 19:17.50 |  3:11.37 |  86825 | 101186
          6 | 22:29.12 |  4:55.38 | 101187 | 123349
          7 | 27:24.50 |  5:07.25 | 123350 | 146399
          8 | 32:32.00 |  4:07.25 | 146400 | 164949
          9 | 36:39.25 |  3:29.62 | 164950 | 180686
         10 | 40:09.12 |  4:37.13 | 180687 | 201474


    范围状态及错误

    已选择范围

         文件名 C:\Users\Administrator\Desktop\张学友-祝福(香港宝丽金C字版)liujian121原创\张学友 - 祝福.wav

         峰值电平 99.4 %
         抓取速度 4.0 X
         范围质量 100.0 %
         复制 CRC 3306E812
         复制成功

    没有错误发生


    AccurateRip 摘要

    音轨  1  精确地校准抓取  5)  [0E1683A8]  (AR v2)
    音轨  2  精确地校准抓取  4)  [7FB29BE8]  (AR v2)
    音轨  3  精确地校准抓取  5)  [D44AD053]  (AR v2)
    音轨  4  精确地校准抓取  5)  [83CEA2BA]  (AR v2)
    音轨  5  精确地校准抓取  5)  [EBE4A3A5]  (AR v2)
    音轨  6  精确地校准抓取  5)  [389E425C]  (AR v2)
    音轨  7  精确地校准抓取  5)  [8EB7BF5C]  (AR v2)
    音轨  8  精确地校准抓取  5)  [79550278]  (AR v2)
    音轨  9  精确地校准抓取  4)  [A2EB1242]  (AR v2)
    音轨 10  精确地校准抓取  5)  [95BE1C91]  (AR v2)

    所有音轨精确校准抓取

    状态报告结尾

    ---- CUETools DB Plugin V2.1.6

    [CTDB TOCID: 6LNrjesLBCK2oCF3AUMU1Zbfo9w-] found
    Submit result: 6LNrjesLBCK2oCF3AUMU1Zbfo9w- has been confirmed
    Track | CTDB Status
      1   | (79/80) Accurately ripped
      2   | (77/80) Accurately ripped, or (2/80) differs in 335 samples @01:01:11,01:02:66,01:04:56,01:06:65,01:07:60,01:12:35-01:12:36,01:15:52,01:15:61,01:15:71,01:16:56,01:16:66,01:17:51,01:19:12,01:19:23,01:24:60,01:28:12,01:28:72,01:30:74,01:33:61,01:36:28,01:36:38,01:37:34,01:39:25,01:40:42,01:42:34,01:49:47
      3   | (80/80) Accurately ripped
      4   | (80/80) Accurately ripped
      5   | (80/80) Accurately ripped
      6   | (80/80) Accurately ripped
      7   | (78/80) Accurately ripped
      8   | (79/80) Accurately ripped
      9   | (80/80) Accurately ripped
    10   | (80/80) Accurately ripped
    我只说三句话,包括刚才那句,我的话完了。
  • TA的每日心情

    2019-8-16 08:26
  • 签到天数: 125 天

    [LV.7]常住居民III

    60

    主题

    3

    精华

    625

    威望

    版主

    超级网管

    最佳基友奖2货中的战斗机社区建设奖

     楼主| 发表于 2017-7-20 15:05 | 显示全部楼层
    E字版LOG:

    Exact Audio Copy V1.1 from 23. June 2015

    EAC 抓取日志文件从19. 七月 2017, 18:46

    张学友 / 祝福

    使用驱动器  :TSSTcorpDVD+-RW TS-L633J   Adapter: 1  ID: 0

    读取模式      : 可靠Secure
    使用精确流     : 是
    清空音频缓存    : 是
    使用 C2 指示器 : 否

    读取偏移校正:               : 6
    读取 Lead-In 和 Lead-Out : 否
    用静音填充抓取中丢失偏移的采样       : 是
    去除首尾静音块               : 否
    在CRC 计算中使用了空样本       : 是
    已用接口                  : Win NT 及 2000 本地 Win32 接口

    所用输出模式: : 内部 WAV 函数
    样本格式    : 44.100 Hz; 16 Bit; 立体声


    已抓取 CD 的 TOC

         音轨 |    起始    |    长度    |  起始扇区  |  结束扇区  
        --------------------------------------------
          1 |  0:00.00 |  4:32.00 |      0 |  20399
          2 |  4:32.00 |  5:11.62 |  20400 |  43786
          3 |  9:43.62 |  5:00.25 |  43787 |  66311
          4 | 14:44.12 |  4:33.38 |  66312 |  86824
          5 | 19:17.50 |  3:11.37 |  86825 | 101186
          6 | 22:29.12 |  4:55.38 | 101187 | 123349
          7 | 27:24.50 |  5:07.25 | 123350 | 146399
          8 | 32:32.00 |  4:07.25 | 146400 | 164949
          9 | 36:39.25 |  3:29.62 | 164950 | 180686
         10 | 40:09.12 |  4:37.13 | 180687 | 201474


    范围状态及错误

    已选择范围

         文件名 C:\Users\Administrator\Desktop\张学友-祝福(香港宝丽金E字版)liujian121原创\张学友 - 祝福.wav

         峰值电平 99.4 %
         抓取速度 4.0 X
         范围质量 100.0 %
         复制 CRC 37ABAD2B
         复制成功

    没有错误发生


    AccurateRip 摘要

    音轨  1  精确地校准抓取  6)  [E185E287]  (AR v2)
    音轨  2  精确地校准抓取  5)  [558B1E2F]  (AR v2)
    音轨  3  精确地校准抓取  6)  [9F955EE8]  (AR v2)
    音轨  4  精确地校准抓取  7)  [B08B3E3D]  (AR v2)
    音轨  5  精确地校准抓取  7)  [6BC5A8CB]  (AR v2)
    音轨  6  精确地校准抓取  7)  [9216EE82]  (AR v2)
    音轨  7  精确地校准抓取  6)  [BAAD0EA8]  (AR v2)
    音轨  8  精确地校准抓取  7)  [B3E3E034]  (AR v2)
    音轨  9  精确地校准抓取  5)  [BD1FD695]  (AR v2)
    音轨 10  精确地校准抓取  7)  [B96F2102]  (AR v2)

    所有音轨精确校准抓取

    状态报告结尾

    ---- CUETools DB Plugin V2.1.6

    [CTDB TOCID: 6LNrjesLBCK2oCF3AUMU1Zbfo9w-] found
    Submit result: already submitted
    Track | CTDB Status
      1   | (80/81) Accurately ripped
      2   | (78/81) Accurately ripped, or (2/81) differs in 335 samples @01:01:11,01:02:66,01:04:56,01:06:65,01:07:60,01:12:35-01:12:36,01:15:52,01:15:62,01:15:71-01:15:72,01:16:56,01:16:66,01:17:51,01:19:12,01:19:23,01:24:60,01:28:12,01:28:72,01:30:74,01:33:61,01:36:28,01:36:38,01:37:34,01:39:25,01:40:42,01:42:34,01:49:47
      3   | (81/81) Accurately ripped
      4   | (81/81) Accurately ripped
      5   | (81/81) Accurately ripped
      6   | (81/81) Accurately ripped
      7   | (79/81) Accurately ripped
      8   | (80/81) Accurately ripped
      9   | (81/81) Accurately ripped
    10   | (81/81) Accurately ripped
    我只说三句话,包括刚才那句,我的话完了。
  • TA的每日心情

    2019-8-16 08:26
  • 签到天数: 125 天

    [LV.7]常住居民III

    60

    主题

    3

    精华

    625

    威望

    版主

    超级网管

    最佳基友奖2货中的战斗机社区建设奖

     楼主| 发表于 2017-7-20 15:05 | 显示全部楼层
    C字版CUE:

    REM GENRE Pop
    REM DATE 1993
    REM DISCID 820A7E0A
    REM COMMENT "ExactAudioCopy v1.1"
    PERFORMER "张学友"
    TITLE "祝福"
    FILE "张学友 - 祝福.wav" WAVE
      TRACK 01 AUDIO
        TITLE "祝福"
        PERFORMER "张学友"
        INDEX 01 00:00:00
      TRACK 02 AUDIO
        TITLE "回头太难"
        PERFORMER "张学友"
        INDEX 01 04:32:00
      TRACK 03 AUDIO
        TITLE "谁想轻轻偷走我的吻"
        PERFORMER "张学友"
        INDEX 01 09:43:62
      TRACK 04 AUDIO
        TITLE "最后一封信"
        PERFORMER "张学友"
        INDEX 01 14:44:12
      TRACK 05 AUDIO
        TITLE "明日约定"
        PERFORMER "张学友"
        INDEX 01 19:17:50
      TRACK 06 AUDIO
        TITLE "好久"
        PERFORMER "张学友"
        INDEX 01 22:29:12
      TRACK 07 AUDIO
        TITLE "情到深处"
        PERFORMER "张学友"
        INDEX 01 27:24:50
      TRACK 08 AUDIO
        TITLE "苦恋"
        PERFORMER "张学友"
        INDEX 01 32:32:00
      TRACK 09 AUDIO
        TITLE "爱情的赌徒"
        PERFORMER "张学友"
        INDEX 01 36:39:25
      TRACK 10 AUDIO
        TITLE "对你的爱越深就越来越心痛"
        PERFORMER "张学友"
        INDEX 01 40:09:12
    我只说三句话,包括刚才那句,我的话完了。
  • TA的每日心情

    2019-8-16 08:26
  • 签到天数: 125 天

    [LV.7]常住居民III

    60

    主题

    3

    精华

    625

    威望

    版主

    超级网管

    最佳基友奖2货中的战斗机社区建设奖

     楼主| 发表于 2017-7-20 15:05 | 显示全部楼层
    E字版CUE:

    REM GENRE Pop
    REM DATE 1993
    REM DISCID 820A7E0A
    REM COMMENT "ExactAudioCopy v1.1"
    PERFORMER "张学友"
    TITLE "祝福"
    FILE "张学友 - 祝福.wav" WAVE
      TRACK 01 AUDIO
        TITLE "祝福"
        PERFORMER "张学友"
        INDEX 01 00:00:00
      TRACK 02 AUDIO
        TITLE "回头太难"
        PERFORMER "张学友"
        INDEX 01 04:32:00
      TRACK 03 AUDIO
        TITLE "谁想轻轻偷走我的吻"
        PERFORMER "张学友"
        INDEX 01 09:43:62
      TRACK 04 AUDIO
        TITLE "最后一封信"
        PERFORMER "张学友"
        INDEX 01 14:44:12
      TRACK 05 AUDIO
        TITLE "明日约定"
        PERFORMER "张学友"
        INDEX 01 19:17:50
      TRACK 06 AUDIO
        TITLE "好久"
        PERFORMER "张学友"
        INDEX 01 22:29:12
      TRACK 07 AUDIO
        TITLE "情到深处"
        PERFORMER "张学友"
        INDEX 01 27:24:50
      TRACK 08 AUDIO
        TITLE "苦恋"
        PERFORMER "张学友"
        INDEX 01 32:32:00
      TRACK 09 AUDIO
        TITLE "爱情的赌徒"
        PERFORMER "张学友"
        INDEX 01 36:39:25
      TRACK 10 AUDIO
        TITLE "对你的爱越深就越来越心痛"
        PERFORMER "张学友"
        INDEX 01 40:09:12
    我只说三句话,包括刚才那句,我的话完了。
  • TA的每日心情
    开心
    2016-12-2 19:44
  • 签到天数: 17 天

    [LV.4]偶尔看看III

    533

    主题

    0

    精华

    116

    威望

    勤杂工

    社区建设奖

    发表于 2017-7-20 16:25 简单论坛手机触屏版 | 显示全部楼层
    楼主好人!!!
    回复

    使用道具 举报

  • TA的每日心情
    奋斗
    2019-8-21 11:18
  • 签到天数: 513 天

    [LV.9]以坛为家II

    92

    主题

    2

    精华

    284

    威望

    版主

    社区建设奖

    发表于 2017-7-24 07:55 | 显示全部楼层
    好人,楼主!!!
    回复

    使用道具 举报

    您需要登录后才可以回帖 登录 | 立即注册

    本版积分规则

    QQ|Archiver|手机版|小黑屋|简单论坛

    GMT+8, 2019-8-21 17:29 , Processed in 0.106431 second(s), 25 queries .

    Powered by Discuz! X3.4

    © 2001-2013 Comsenz Inc.